<?xml version="1.0" standalone="no"?>
<!DOCTYPE svg PUBLIC "-//W3C//DTD SVG 1.1//EN" "http://www.w3.org/Graphics/SVG/1.1/DTD/svg11.dtd" >
<svg xmlns="http://www.w3.org/2000/svg">
<metadata>Generated by IcoMoon</metadata>
<defs>
<font id="icomoon" horiz-adv-x="1024">
<font-face units-per-em="1024" ascent="960" descent="-64" />
<missing-glyph horiz-adv-x="1024" />
<glyph unicode="&#x20;" horiz-adv-x="512" d="" />
<glyph unicode="&#xe900;" glyph-name="add" d="M903.534 569.905h-269.629v269.629c0 66.243-55.637 120.466-121.905 120.466s-121.905-54.223-121.905-120.466v-269.629h-269.629c-66.243 0-120.466-55.637-120.466-121.905s54.223-121.905 120.466-121.905h269.629v-269.629c0-66.243 55.637-120.466 121.905-120.466s121.905 54.223 121.905 120.466v269.629h269.629c66.243 0 120.466 55.637 120.466 121.905s-54.223 121.905-120.466 121.905z" />
<glyph unicode="&#xe901;" glyph-name="angle-arrow-down" d="M1013.768 685.029l-51.299 51.295c-6.836 6.85-14.71 10.264-23.612 10.264-8.88 0-16.751-3.414-23.587-10.264l-403.265-403.244-403.247 403.233c-6.839 6.85-14.71 10.264-23.601 10.264-8.895 0-16.765-3.414-23.601-10.264l-51.292-51.299c-6.85-6.836-10.264-14.706-10.264-23.601 0-8.888 3.425-16.758 10.264-23.594l478.14-478.151c6.836-6.839 14.71-10.257 23.601-10.257s16.751 3.418 23.583 10.257l478.18 478.151c6.836 6.839 10.232 14.71 10.232 23.594 0 8.895-3.396 16.765-10.232 23.615z" />
<glyph unicode="&#xe902;" glyph-name="cancel" d="M624.782 448l382.859 382.876c10.531 10.54 16.342 24.601 16.359 39.595 0 15.002-5.811 29.080-16.359 39.603l-33.551 33.542c-10.548 10.565-24.609 16.351-39.62 16.351-14.985 0-29.047-5.786-39.595-16.351l-382.859-382.851-382.876 382.851c-10.531 10.565-24.601 16.351-39.603 16.351-14.985 0-29.055-5.786-39.586-16.351l-33.567-33.542c-21.845-21.845-21.845-57.377 0-79.198l382.868-382.876-382.868-382.859c-10.54-10.556-16.342-24.618-16.342-39.611s5.803-29.055 16.342-39.603l33.559-33.542c10.531-10.556 24.609-16.351 39.586-16.351 15.002 0 29.072 5.794 39.603 16.351l382.876 382.859 382.859-382.859c10.548-10.556 24.609-16.351 39.595-16.351h0.017c14.994 0 29.055 5.794 39.603 16.351l33.551 33.542c10.531 10.54 16.342 24.609 16.342 39.603s-5.811 29.055-16.342 39.603l-382.851 382.868z" />
<glyph unicode="&#xe903;" glyph-name="delete" d="M219.97-14.618c1.156-27.6 23.868-49.382 51.488-49.382h481.089c27.62 0 50.332 21.782 51.488 49.382l34.356 725.268h-652.778l34.356-725.268zM620.831 530.506c0 11.557 9.371 20.93 20.932 20.93h33.479c11.554 0 20.932-9.371 20.932-20.93v-414.362c0-11.559-9.371-20.93-20.932-20.93h-33.479c-11.557 0-20.932 9.366-20.932 20.93v414.362zM474.334 530.506c0 11.557 9.371 20.93 20.93 20.93h33.479c11.554 0 20.93-9.371 20.93-20.93v-414.362c0-11.559-9.368-20.93-20.93-20.93h-33.479c-11.557 0-20.93 9.366-20.93 20.93v414.362zM327.832 530.506c0 11.557 9.371 20.93 20.93 20.93h33.481c11.557 0 20.93-9.371 20.93-20.93v-414.362c0-11.559-9.371-20.93-20.93-20.93h-33.481c-11.557 0-20.93 9.366-20.93 20.93v414.362zM861.266 907.249h-221.943v41.959c0 5.959-4.831 10.792-10.792 10.792h-233.063c-5.959 0-10.789-4.833-10.789-10.792v-41.957h-221.945c-17.861 0-32.338-14.479-32.338-32.341v-101.595h763.209v101.592c0 17.861-14.477 32.341-32.338 32.341z" />
<glyph unicode="&#xe904;" glyph-name="link" d="M957.333 893.333c-89 89-233 89-321.667 0l-123.667-123.667c-75-75-86-188.667-34.667-276l-11.333-11.333c-87.333 51.333-201 40.333-276-34.333l-123.333-123.667c-89-89-89-233 0-321.667 88.667-88.667 233-89 321.667 0l123.667 123.667c75 75 86 188.667 34.667 276l11.333 11.333c87.333-51.333 201-40.333 275.667 34.333l123.667 123.333c89 89 89 233.333 0 322zM431.667 206.667l-123.667-123.667c-44.333-44.333-116.667-44.333-161 0s-44.333 116.333 0 161l123.667 123.667c21.333 21.667 50 33.333 80.333 33.333 10 0 19.667-1.667 29-4.333l-89.333-89.333c-22-22-22-58.333 0-80.333s58.333-22 80.333 0l89.333 89.333c10.333-38 1-80-28.667-109.667zM877 652l-123.667-123.667c-29.667-29.667-71.667-39-109.333-29l89.333 89.333c22 22 22 58.333 0 80.333-22.333 22-58.333 22-80.667 0l-89.333-89c-10 38-0.667 80 29 109.333l123.667 123.667c21.667 21.667 50 33.333 80.333 33.333s59-11.667 80.333-33.333c44.667-44.333 44.667-116.667 0.333-161z" />
<glyph unicode="&#xe905;" glyph-name="moon" d="M999.082 376.791c-10.475 2.619-20.951 0-30.116-6.547-34.045-28.807-73.327-52.377-116.538-68.089-40.592-15.713-85.112-23.569-132.251-23.569-106.062 0-202.959 43.211-272.358 112.609s-112.609 166.295-112.609 272.358c0 44.52 7.856 87.731 20.951 127.013 14.404 41.901 35.354 79.874 62.852 112.609 11.785 14.404 9.166 35.354-5.238 47.139-9.166 6.547-19.641 9.166-30.116 6.547-111.3-30.116-208.197-96.897-277.595-185.937-66.78-87.731-106.062-196.412-106.062-314.259 0-142.726 57.614-272.358 151.892-366.636s222.6-151.892 366.636-151.892c120.466 0 231.766 41.901 320.806 111.3 90.349 70.708 155.82 171.533 183.318 286.761 5.238 18.332-5.238 36.664-23.569 40.592z" />
<glyph unicode="&#xe906;" glyph-name="move" d="M1014.706 469.51l-167.384 157.538c-8.578 8.078-21.14 10.282-31.96 5.606-10.818-4.674-17.822-15.33-17.822-27.116v-68.924h-196.924v196.924h68.924c11.784 0 22.442 7.004 27.116 17.822s2.472 23.38-5.606 31.96l-157.54 167.386c-5.582 5.93-13.366 9.294-21.51 9.294s-15.928-3.364-21.51-9.294l-157.538-167.386c-8.078-8.58-10.28-21.142-5.606-31.96s15.33-17.822 27.116-17.822h68.924v-196.924h-196.924v68.924c0 11.784-7.004 22.442-17.822 27.116-10.82 4.674-23.38 2.472-31.96-5.606l-167.386-157.538c-5.93-5.582-9.294-13.366-9.294-21.51s3.364-15.928 9.294-21.51l167.384-157.538c8.58-8.078 21.14-10.282 31.96-5.606 10.818 4.674 17.822 15.33 17.822 27.116v68.924h196.924v-196.924h-68.924c-11.784 0-22.442-7.004-27.116-17.822s-2.472-23.38 5.606-31.96l157.538-167.384c5.58-5.932 13.366-9.294 21.51-9.294s15.928 3.364 21.51 9.294l157.538 167.384c8.078 8.58 10.28 21.142 5.606 31.96s-15.33 17.822-27.116 17.822h-68.924v196.924h196.924v-68.924c0-11.784 7.004-22.442 17.822-27.116 10.82-4.674 23.382-2.472 31.96 5.606l167.384 157.538c5.932 5.58 9.294 13.366 9.294 21.51s-3.36 15.928-9.29 21.51z" />
<glyph unicode="&#xe907;" glyph-name="reload" horiz-adv-x="941" d="M780.237 951.758c-9.14-3.763-17.473-10.347-23.486-19.397-10.047-15.122-11.236-33.547-4.801-49.158l0.090-0.202 1.088-2.599c-226.796 127.847-518.147 60.533-664.465-159.694-153.204-230.597-90.245-542.842 140.351-696.049s542.84-90.248 696.047 140.348c21.416 32.233 12.646 75.724-19.587 97.139s-75.724 12.646-97.139-19.587v0c-0.001-0.001-0.002-0.003-0.003-0.005-110.621-166.498-335.27-211.795-501.768-101.174s-211.795 335.27-101.174 501.768c102.208 153.835 301.758 204.204 462.845 123.724l1.564-0.826c-15.261-1.52-29.627-9.562-38.705-23.226-16.062-24.175-9.485-56.793 14.69-72.854 8.971-5.961 19.106-8.803 29.125-8.786l-0.227 0.006 187.56 0.312c21.124-0.351 41.685 9.597 54.069 28.237s13.588 41.45 5.205 60.521l-0.126 0.266-72.395 173.026c-3.763 9.142-10.347 17.477-19.399 23.491-15.119 10.045-33.541 11.235-49.15 4.804l-0.202-0.090z" />
<glyph unicode="&#xe908;" glyph-name="sun" d="M512 704.476c-141.424 0-256.476-115.075-256.476-256.499s115.053-256.499 256.476-256.499c141.401 0 256.476 115.053 256.476 256.499s-115.075 256.499-256.476 256.499zM512 779.87c-27.641 0-50.044 22.403-50.044 50.021v80.065c0 27.641 22.403 50.044 50.044 50.044s50.044-22.403 50.044-50.044v-80.065c0-27.618-22.426-50.021-50.044-50.021zM512 116.152c-27.641 0-50.044-22.403-50.044-50.044v-80.043c0-27.663 22.403-50.066 50.044-50.066s50.044 22.403 50.044 50.066v80.043c0 27.641-22.426 50.044-50.044 50.044zM746.64 682.663c-19.523 19.546-19.523 51.223 0 70.768l56.619 56.619c19.523 19.523 51.223 19.523 70.768 0 19.546-19.546 19.546-51.245 0-70.768l-56.619-56.619c-19.523-19.546-51.2-19.546-70.768 0zM277.337 213.314c-19.546 19.568-51.223 19.568-70.768 0l-56.619-56.597c-19.523-19.523-19.546-51.245 0-70.768s51.245-19.523 70.768 0l56.619 56.642c19.546 19.523 19.546 51.223 0 70.723zM843.848 448c0 27.641 22.403 50.044 50.044 50.044h80.065c27.641 0 50.044-22.403 50.044-50.044s-22.403-50.021-50.044-50.021h-80.065c-27.641 0-50.044 22.38-50.044 50.021zM180.13 448c0 27.641-22.403 50.044-50.044 50.044h-80.043c-27.641 0-50.044-22.403-50.044-50.044s22.403-50.021 50.044-50.021h80.065c27.618 0 50.021 22.38 50.021 50.021zM746.64 213.314c19.546 19.523 51.245 19.523 70.768 0l56.619-56.619c19.546-19.5 19.546-51.223 0-70.746s-51.223-19.523-70.768 0l-56.619 56.619c-19.546 19.546-19.546 51.223 0 70.746zM277.337 682.663c19.546 19.546 19.546 51.223 0 70.768l-56.619 56.597c-19.546 19.546-51.223 19.546-70.768 0-19.546-19.523-19.546-51.223 0-70.746l56.619-56.619c19.546-19.568 51.223-19.568 70.768 0z" />
<glyph unicode="&#xe909;" glyph-name="target" d="M512 10.6c-241.2 0-437.4 196.2-437.4 437.4s196.2 437.4 437.4 437.4 437.4-196.2 437.4-437.4-196.2-437.4-437.4-437.4zM512 800c-194 0-352-158-352-352s158-352 352-352 352 158 352 352-158 352-352 352zM512 725.4c-23.6 0-42.6 19.2-42.6 42.6v149.4c0 23.4 19 42.6 42.6 42.6s42.6-19.2 42.6-42.6v-149.4c0-23.6-19-42.6-42.6-42.6zM981.4 405.4h-149.4c-23.6 0-42.6 19.2-42.6 42.6s19.2 42.6 42.6 42.6h149.4c23.6 0 42.6-19.2 42.6-42.6s-19.2-42.6-42.6-42.6zM512-64c-23.6 0-42.6 19.2-42.6 42.6v149.4c0 23.6 19.2 42.6 42.6 42.6s42.6-19.2 42.6-42.6v-149.4c0-23.4-19-42.6-42.6-42.6zM192 405.4h-149.4c-23.4 0-42.6 19-42.6 42.6s19.2 42.6 42.6 42.6h149.4c23.6 0 42.6-19.2 42.6-42.6s-19-42.6-42.6-42.6zM512 320c-70.6 0-128 57.4-128 128s57.4 128 128 128 128-57.4 128-128-57.4-128-128-128zM512 490.6c-23.6 0-42.6-19.2-42.6-42.6 0-23.6 19.2-42.6 42.6-42.6 23.6 0 42.6 19.2 42.6 42.6 0 23.6-19 42.6-42.6 42.6z" />
<glyph unicode="&#xe90a;" glyph-name="toggle-double" horiz-adv-x="635" d="M218.509 922.51c23.163-23.163 37.49-55.163 37.49-90.509 0-70.692-57.307-128-128-128s-128 57.307-128 128c0 35.346 14.327 67.346 37.49 90.509v0c23.163 23.164 55.163 37.491 90.51 37.491s67.346-14.327 90.51-37.49v0zM218.509 538.508c23.163-23.163 37.49-55.163 37.49-90.509 0-70.692-57.307-128-128-128s-128 57.307-128 128c0 35.346 14.327 67.346 37.49 90.509v0c23.163 23.164 55.163 37.491 90.51 37.491s67.346-14.327 90.51-37.49v0zM218.509 154.509c23.163-23.163 37.49-55.163 37.49-90.509 0-70.692-57.307-128-128-128s-128 57.307-128 128c0 35.346 14.327 67.346 37.49 90.509v0c23.163 23.164 55.163 37.491 90.51 37.491s67.346-14.327 90.51-37.49v0zM597.876 922.51c23.163-23.163 37.49-55.163 37.49-90.509 0-70.692-57.307-128-128-128s-128 57.307-128 128c0 35.346 14.327 67.346 37.49 90.509v0c23.163 23.164 55.163 37.491 90.51 37.491s67.346-14.327 90.51-37.49v0zM597.876 538.508c23.163-23.163 37.49-55.163 37.49-90.509 0-70.692-57.307-128-128-128s-128 57.307-128 128c0 35.346 14.327 67.346 37.49 90.509v0c23.163 23.164 55.163 37.491 90.51 37.491s67.346-14.327 90.51-37.49v0zM597.876 154.509c23.163-23.163 37.49-55.163 37.49-90.509 0-70.692-57.307-128-128-128s-128 57.307-128 128c0 35.346 14.327 67.346 37.49 90.509v0c23.163 23.164 55.163 37.491 90.51 37.491s67.346-14.327 90.51-37.49v0z" />
<glyph unicode="&#xe90b;" glyph-name="copy" horiz-adv-x="918" d="M309.247 960h353.278c1.119-7.824 1.857-17.037 2.045-26.385l0.004-0.237v-231.424h252.922v-457.727h-610.297c0 8.194-1.024 14.336-1.024 21.505v672.764c0.588 8.016 1.679 15.369 3.264 22.537l-0.192-1.032zM0 752.129h203.777v-611.328h511.997v-204.801h-714.75q-1.535 408.578-1.024 816.129zM767.998 807.427v141.311c47.094-47.094 94.207-95.231 141.311-141.311z" />
<glyph unicode="&#xe90c;" glyph-name="checkbox" d="M162.909 960c-89.935-0.093-162.816-72.974-162.909-162.9v-698.191c0.093-89.935 72.974-162.816 162.9-162.909h698.191c89.935 0.093 162.816 72.974 162.909 162.9v698.191c-0.093 89.935-72.974 162.816-162.9 162.909h-0.009zM162.909 913.455h698.182c0.229 0.002 0.5 0.003 0.771 0.003 63.842 0 115.596-51.754 115.596-115.596 0-0.271-0.001-0.542-0.003-0.812v0.042-698.182c0.002-0.229 0.003-0.5 0.003-0.771 0-63.842-51.754-115.596-115.596-115.596-0.271 0-0.542 0.001-0.812 0.003h-698.14c-0.229-0.002-0.5-0.003-0.771-0.003-63.842 0-115.596 51.754-115.596 115.596 0 0.271 0.001 0.542 0.003 0.812v-0.042 698.182c-0.002 0.229-0.003 0.5-0.003 0.771 0 63.842 51.754 115.596 115.596 115.596 0.271 0 0.542-0.001 0.812-0.003h-0.042z" />
<glyph unicode="&#xe90d;" glyph-name="edit" d="M0 149.564v-213.564h213.564l629.083 629.083-213.564 213.561zM1007.461 729.898c10.22 10.26 16.539 24.414 16.539 40.043s-6.319 29.782-16.541 40.044l-133.481 133.476c-10.26 10.22-24.414 16.539-40.043 16.539s-29.782-6.319-40.044-16.541l-104.454-104.459 213.564-213.564 104.461 104.461zM999.335-64h-616.315l218.215 224.008h398.118c0.173 0.005 0.376 0.007 0.581 0.007 13.144 0 23.8-10.656 23.8-23.8 0-0.204-0.003-0.408-0.008-0.611l0.001 0.030v-175.262c-0.081-13.435-10.955-24.303-24.384-24.373h-0.007z" />
<glyph unicode="&#xe90e;" glyph-name="checkbox-checked" d="M920.566 960h-817.131c-57.125 0-103.434-46.309-103.434-103.434v0-817.131c0-57.125 46.309-103.434 103.434-103.434v0h817.131c57.125 0 103.434 46.309 103.434 103.434v0 817.131c0 57.125-46.309 103.434-103.434 103.434v0zM785.605 582.868s-326.925-329.428-326.925-330.752c-14.346-14.481-29.996-13.395-44.787 1.458l-159.599 161.616q-24.235 22.218-1.034 44.477t45.511 0l137.34-135.385 303.063 305.049q22.197 22.197 45.511-1.034t0.921-45.428z" />
<glyph unicode="&#xe90f;" glyph-name="more" d="M625.779 846.221c0-62.838-50.94-113.779-113.779-113.779s-113.779 50.94-113.779 113.779c0 62.838 50.94 113.779 113.779 113.779s113.779-50.94 113.779-113.779zM625.779 448c0-62.838-50.94-113.779-113.779-113.779s-113.779 50.94-113.779 113.779c0 62.838 50.94 113.779 113.779 113.779s113.779-50.94 113.779-113.779zM625.779 49.779c0-62.838-50.94-113.779-113.779-113.779s-113.779 50.94-113.779 113.779c0 62.838 50.94 113.779 113.779 113.779s113.779-50.94 113.779-113.779z" />
<glyph unicode="&#xe910;" glyph-name="grid" d="M274.55 960h-237.45c-16.393 0-29.681-13.288-29.681-29.681v-237.45c0-16.393 13.288-29.681 29.681-29.681h237.45c16.393 0 29.681 13.288 29.681 29.681v237.45c0 16.393-13.288 29.681-29.681 29.681zM630.725 960h-237.45c-16.393 0-29.681-13.288-29.681-29.681v-237.45c0-16.393 13.288-29.681 29.681-29.681h237.45c16.393 0 29.681 13.288 29.681 29.681v237.45c0 16.393-13.288 29.681-29.681 29.681zM274.55 603.826h-237.45c-16.393 0-29.681-13.288-29.681-29.681v-237.45c0-16.393 13.288-29.681 29.681-29.681h237.45c16.393 0 29.681 13.288 29.681 29.681v237.45c0 16.393-13.288 29.681-29.681 29.681zM630.725 603.826h-237.45c-16.393 0-29.681-13.288-29.681-29.681v-237.45c0-16.393 13.288-29.681 29.681-29.681h237.45c16.393 0 29.681 13.288 29.681 29.681v237.45c0 16.393-13.288 29.681-29.681 29.681zM986.899 960h-237.45c-16.393 0-29.681-13.288-29.681-29.681v-237.45c0-16.393 13.288-29.681 29.681-29.681h237.45c16.393 0 29.681 13.288 29.681 29.681v237.45c0 16.393-13.291 29.681-29.681 29.681zM986.899 603.826h-237.45c-16.393 0-29.681-13.288-29.681-29.681v-237.45c0-16.393 13.288-29.681 29.681-29.681h237.45c16.393 0 29.681 13.288 29.681 29.681v237.45c0 16.393-13.291 29.681-29.681 29.681zM274.55 232.812h-237.45c-16.393 0-29.681-13.288-29.681-29.681v-237.45c0-16.393 13.288-29.681 29.681-29.681h237.45c16.393 0 29.681 13.288 29.681 29.681v237.45c0 16.393-13.288 29.681-29.681 29.681zM630.725 232.812h-237.45c-16.393 0-29.681-13.288-29.681-29.681v-237.45c0-16.393 13.288-29.681 29.681-29.681h237.45c16.393 0 29.681 13.288 29.681 29.681v237.45c0 16.393-13.288 29.681-29.681 29.681zM986.899 232.812h-237.45c-16.393 0-29.681-13.288-29.681-29.681v-237.45c0-16.393 13.288-29.681 29.681-29.681h237.45c16.393 0 29.681 13.288 29.681 29.681v237.45c0 16.393-13.291 29.681-29.681 29.681z" />
<glyph unicode="&#xe911;" glyph-name="list" horiz-adv-x="1244" d="M20.617 162.792h1202.685c11.387 0 20.617-9.231 20.617-20.617v-185.557c0-11.387-9.231-20.617-20.617-20.617h-1202.685c-11.387 0-20.617 9.231-20.617 20.617v185.557c0 11.387 9.231 20.617 20.617 20.617zM20.617 561.396h1202.685c11.387 0 20.617-9.231 20.617-20.617v-185.557c0-11.387-9.231-20.617-20.617-20.617h-1202.685c-11.387 0-20.617 9.231-20.617 20.617v185.557c0 11.387 9.231 20.617 20.617 20.617zM20.617 960h1202.685c11.387 0 20.617-9.231 20.617-20.617v-185.557c0-11.387-9.231-20.617-20.617-20.617h-1202.685c-11.387 0-20.617 9.231-20.617 20.617v185.557c0 11.387 9.231 20.617 20.617 20.617z" />
<glyph unicode="&#xe912;" glyph-name="search" horiz-adv-x="1022" d="M707.745 352.359c122.92 173.574 81.81 413.923-91.764 536.814s-413.923 81.81-536.814-91.794c-122.891-173.574-81.81-413.894 91.794-536.785 123.889-87.712 287.685-94.466 418.357-17.296l283.926-282.223c30.657-32.272 81.663-33.564 113.935-2.907 32.272 30.627 33.564 81.634 2.936 113.905-0.969 1.028-1.909 1.967-2.936 2.936zM393.221 326.048c-137.162-0.029-248.366 111.086-248.454 248.248-0.029 137.162 111.086 248.366 248.278 248.424 136.986 0.059 248.131-110.881 248.395-247.866 0.235-137.191-110.822-248.571-248.043-248.806-0.059 0-0.088 0-0.176 0z" />
<glyph unicode="&#xe913;" glyph-name="visit-url" d="M949.1 379.8c-30.612-1.162-54.444-27.318-54.444-57.932v-226.106c0-16.856-13.562-30.418-30.418-30.418h-704.475c-16.856 0-30.612 13.756-30.612 30.612v699.438c0 19.568 15.888 35.262 35.262 35.262h208.475c31.968 0 57.738 26.544 56.575 58.9-1.162 30.612-27.318 54.444-57.932 54.444h-320.268c-19.568 0-35.262-15.888-35.262-35.262v-926.125c0-16.856 13.756-30.612 30.612-30.612h930.968c16.856 0 30.418 13.562 30.418 30.418v340.806c0 31.968-26.544 57.738-58.9 56.575zM748.956 811.282c4.844-4.844 4.844-12.4 0-17.244l-378.975-383.625c-30.225-30.225-30.225-79.244 0-109.275v0c30.225-30.225 79.244-30.225 109.275 0l378.782 383.432c4.844 4.844 12.594 4.844 17.244 0l111.018-111.018c7.75-7.75 20.925-2.325 20.925 8.718v348.75c0 6.782-5.425 12.206-12.206 12.206h-348.75c-10.85 0-16.275-13.175-8.718-20.925l111.406-111.018z" />
<glyph unicode="&#xe914;" glyph-name="share" horiz-adv-x="945" d="M748.308 329.846c-69.222-0.233-130.006-36.147-164.947-90.302l-0.469-0.775-211.2 120.615c13.813 25.684 21.993 56.177 22.154 88.565v0.050c-0.367 20.342-3.761 39.763-9.749 58.008l0.396-1.392 219.569 125.538c35.899-39.144 87.175-63.686 144.189-64h0.057c108.758 0 196.923 88.165 196.923 196.923s-88.165 196.923-196.923 196.923c-108.758 0-196.923-88.165-196.923-196.923v0c0.367-20.342 3.761-39.763 9.749-58.008l-0.396 1.392-219.569-125.538c-35.899 39.144-87.175 63.686-144.189 64h-0.057c-0.429 0.003-0.937 0.005-1.445 0.005-108.758 0-196.923-88.165-196.923-196.923s88.165-196.923 196.923-196.923c45.41 0 87.229 15.37 120.541 41.191l-0.45-0.335 237.785-137.846c0-6.892 0-13.785 0-21.169 0-108.758 88.165-196.923 196.923-196.923s196.923 88.165 196.923 196.923c0 108.758-88.165 196.923-196.923 196.923v0z" />
<glyph unicode="&#xe915;" glyph-name="abtesting" horiz-adv-x="1396" d="M1331.2 223.264h-335.292v95.15c0 22.655-18.124 35.342-35.342 35.342-9.062 0-18.124-3.625-24.467-10.874l-158.584-158.584c-13.593-13.593-13.593-36.248 0-49.841l158.584-158.584c6.343-7.25 15.405-10.874 24.467-10.874s18.124 3.625 24.467 9.968c7.25 6.343 10.874 15.405 10.874 25.373v95.15h335.292c35.342 0 64.34 28.998 64.34 64.34 0 34.435-28.998 63.434-64.34 63.434zM459.441 919.221c-6.343 7.25-15.405 10.874-24.467 10.874-18.124 0-36.248-13.593-36.248-36.248v-95.15h-335.292c-35.342 0-64.34-28.998-64.34-64.34s28.998-64.34 64.34-64.34h335.292v-95.15c0-22.655 18.124-35.342 35.342-35.342 0 0 0 0 0 0 9.062 0 18.124 3.625 24.467 10.874l158.584 158.584c13.593 13.593 13.593 36.248 0 49.841l-157.678 160.396zM1113.713 903.816c-9.968 9.062-22.655 14.499-36.248 14.499-15.405 0-28.998-6.343-38.966-17.218l-760.297-842.761c-9.968-9.968-14.499-23.561-14.499-38.060 0.906-14.499 7.25-28.092 18.124-37.154l0.906-0.906c7.25-5.437 13.593-9.062 20.842-10.874 4.531-0.906 9.062-1.812 13.593-1.812 15.405 0 29.904 6.343 39.873 17.218l760.297 841.855c9.968 9.968 14.499 23.561 14.499 38.060-0.906 14.499-7.25 28.092-18.124 37.154z" />
<glyph unicode="&#xe916;" glyph-name="calendar" d="M825.344 886.272h-38.912v20.48c0 22.528-18.432 40.96-40.96 40.96s-40.96-18.432-40.96-40.96v-20.48h-389.12v20.48c0 22.528-18.432 40.96-40.96 40.96s-40.96-18.432-40.96-40.96v-20.48h-34.816c-110.592 0-198.656-90.112-198.656-198.656v-548.864c0-108.544 88.064-198.656 198.656-198.656h628.736c108.544 0 198.656 88.064 198.656 198.656v548.864c-2.048 108.544-90.112 198.656-200.704 198.656zM944.128 138.752c0-65.536-53.248-116.736-116.736-116.736h-628.736c-65.536 0-116.736 53.248-116.736 116.736v430.080h864.256v-430.080zM944.128 648.704h-864.256v38.912c0 65.536 53.248 116.736 116.736 116.736h38.912v-34.816c0-22.528 18.432-40.96 40.96-40.96s40.96 18.432 40.96 40.96v36.864h393.216v-34.816c0-22.528 18.432-40.96 40.96-40.96s40.96 18.432 40.96 40.96v34.816h38.912c65.536 0 116.736-53.248 116.736-116.736v-40.96zM237.568 372.224h77.824c22.528 0 40.96 18.432 40.96 40.96s-18.432 40.96-40.96 40.96h-77.824c-22.528 0-40.96-18.432-40.96-40.96s18.432-40.96 40.96-40.96zM708.608 372.224h77.824c22.528 0 40.96 18.432 40.96 40.96s-18.432 40.96-40.96 40.96h-77.824c-22.528 0-40.96-18.432-40.96-40.96 2.048-22.528 18.432-40.96 40.96-40.96zM473.088 372.224h77.824c22.528 0 40.96 18.432 40.96 40.96s-18.432 40.96-40.96 40.96h-77.824c-22.528 0-40.96-18.432-40.96-40.96s18.432-40.96 40.96-40.96zM237.568 136.704h77.824c22.528 0 40.96 18.432 40.96 40.96s-18.432 40.96-40.96 40.96h-77.824c-22.528 0-40.96-18.432-40.96-40.96s18.432-40.96 40.96-40.96zM708.608 136.704h77.824c22.528 0 40.96 18.432 40.96 40.96s-18.432 40.96-40.96 40.96h-77.824c-22.528 0-40.96-18.432-40.96-40.96s18.432-40.96 40.96-40.96zM473.088 136.704h77.824c22.528 0 40.96 18.432 40.96 40.96s-18.432 40.96-40.96 40.96h-77.824c-22.528 0-40.96-18.432-40.96-40.96s18.432-40.96 40.96-40.96z" />
<glyph unicode="&#xe917;" glyph-name="time-date" d="M512 960c-282.624 0-512-229.376-512-512s229.376-512 512-512c282.624 0 512 229.376 512 512s-229.376 512-512 512v0zM512 48.64c-221.184 0-399.36 178.176-399.36 399.36s178.176 399.36 399.36 399.36c221.184 0 399.36-180.224 399.36-399.36 0-221.184-178.176-399.36-399.36-399.36v0zM557.056 448v212.992c0 24.576-20.48 43.008-43.008 43.008-24.576 0-43.008-18.432-43.008-43.008v-229.376c0 0 0-2.048 0-2.048 0-12.288 4.096-24.576 12.288-32.768l161.792-161.792c16.384-16.384 45.056-16.384 61.44 0s16.384 45.056 0 61.44l-149.504 151.552z" />
<glyph unicode="&#xe918;" glyph-name="device" d="M940.032 925.184h-856.064c-47.104 0-83.968-36.864-83.968-83.968v-634.88c0-47.104 36.864-83.968 83.968-83.968h389.12v-81.92h-120.832c-20.48 0-38.912-16.384-38.912-38.912 0-20.48 16.384-38.912 38.912-38.912h315.392c20.48 0 38.912 16.384 38.912 38.912 0 20.48-16.384 38.912-38.912 38.912h-120.832v81.92h389.12c47.104 0 83.968 36.864 83.968 83.968v634.88c4.096 47.104-32.768 83.968-79.872 83.968zM948.224 206.336c0-4.096-4.096-8.192-8.192-8.192h-856.064c-4.096 0-8.192 4.096-8.192 8.192v634.88c0 4.096 4.096 8.192 8.192 8.192h856.064c4.096 0 8.192-4.096 8.192-8.192v-634.88z" />
<glyph unicode="&#xe919;" glyph-name="geography" d="M512 960c-227.328 0-411.648-184.32-411.648-411.648v-10.24c0-114.688 65.536-247.808 194.56-395.264 92.16-106.496 184.32-180.224 188.416-184.32l28.672-22.528 28.672 22.528c4.096 4.096 96.256 77.824 188.416 184.32 129.024 147.456 194.56 280.576 194.56 395.264v10.24c-2.048 227.328-186.368 411.648-411.648 411.648zM512 869.888c176.128 0 319.488-143.36 319.488-319.488v-10.24c0-186.368-239.616-413.696-319.488-483.328-79.872 67.584-319.488 294.912-319.488 481.28v10.24c0 178.176 143.36 321.536 319.488 321.536zM512 384.512c90.112 0 163.84 73.728 163.84 163.84s-73.728 163.84-163.84 163.84-163.84-73.728-163.84-163.84 71.68-163.84 163.84-163.84zM512 634.368c47.104 0 86.016-38.912 86.016-86.016s-38.912-86.016-86.016-86.016-86.016 38.912-86.016 86.016 38.912 86.016 86.016 86.016z" />
<glyph unicode="&#xe91a;" glyph-name="setting" d="M946.176 560.64h-32.768c-8.192 32.768-22.528 63.488-38.912 92.16l22.528 22.528c30.72 30.72 30.72 79.872 0 110.592l-47.104 47.104c-14.336 16.384-34.816 24.576-55.296 24.576s-40.96-8.192-55.296-22.528l-22.528-24.576c-28.672 16.384-61.44 28.672-92.16 38.912v32.768c0 43.008-34.816 77.824-77.824 77.824h-67.584c-43.008 0-77.824-34.816-77.824-77.824v-32.768c-32.768-8.192-63.488-22.528-92.16-38.912l-22.528 22.528c-18.432 16.384-36.864 24.576-57.344 24.576s-40.96-8.192-55.296-22.528l-49.152-49.152c-30.72-30.72-30.72-79.872 0-110.592l24.576-22.528c-16.384-28.672-28.672-61.44-38.912-92.16h-32.768c-43.008 0-77.824-34.816-77.824-77.824v-67.584c0-43.008 34.816-77.824 77.824-77.824h32.768c8.192-32.768 22.528-63.488 38.912-92.16l-22.528-22.528c-30.72-30.72-30.72-79.872 0-110.592l47.104-47.104c14.336-14.336 34.816-22.528 55.296-22.528s40.96 8.192 55.296 22.528l22.528 22.528c28.672-16.384 61.44-28.672 92.16-38.912v-32.768c0-43.008 34.816-77.824 77.824-77.824h67.584c43.008 0 77.824 34.816 77.824 77.824v32.768c32.768 8.192 63.488 22.528 92.16 38.912l22.528-22.528c14.336-14.336 34.816-22.528 55.296-22.528s40.96 8.192 55.296 22.528l47.104 47.104c30.72 30.72 30.72 79.872 0 110.592l-20.48 20.48c16.384 28.672 28.672 61.44 38.912 92.16h32.768c43.008 0 77.824 34.816 77.824 77.824v67.584c0 45.056-34.816 79.872-77.824 79.872v0zM946.176 411.136h-92.16l-6.144-30.72c-8.192-43.008-26.624-86.016-51.2-122.88l-18.432-24.576 65.536-65.536c2.048-2.048 2.048-2.048 0-4.096l-47.104-47.104c0 0 0 0-2.048 0s-2.048 0-2.048 0l-65.536 65.536-26.624-16.384c-36.864-24.576-77.824-43.008-122.88-51.2l-30.72-6.144v-92.16c0-2.048-2.048-2.048-2.048-2.048h-67.584c-2.048 0-2.048 2.048-2.048 2.048v92.16l-30.72 6.144c-43.008 8.192-86.016 26.624-122.88 51.2l-24.576 16.384-65.536-65.536c0 0 0 0-2.048 0s-2.048 0-2.048 0l-47.104 47.104c-2.048 2.048-2.048 2.048 0 4.096l65.536 65.536-16.384 26.624c-24.576 36.864-43.008 77.824-51.2 122.88l-6.144 30.72h-94.208c-2.048 0-2.048 2.048-2.048 2.048v67.584c0 2.048 2.048 2.048 2.048 2.048h92.16l6.144 30.72c8.192 43.008 26.624 86.016 51.2 122.88l16.384 26.624-65.536 65.536c-2.048 2.048-2.048 2.048 0 4.096l47.104 47.104c0 0 0 0 2.048 0s2.048 0 2.048 0l65.536-65.536 26.624 16.384c36.864 24.576 77.824 43.008 122.88 51.2l30.72 6.144v92.16c0 2.048 2.048 2.048 2.048 2.048h67.584c2.048 0 2.048-2.048 2.048-2.048v-92.16l30.72-6.144c43.008-8.192 86.016-26.624 122.88-51.2l26.624-16.384 65.536 65.536c0 0 0 0 2.048 0s2.048 0 2.048 0l47.104-47.104c2.048-2.048 2.048-2.048 0-4.096l-65.536-67.584 16.384-26.624c24.576-36.864 43.008-77.824 51.2-122.88l6.144-30.72h92.16c2.048 0 2.048-2.048 2.048-2.048v-67.584c2.048 0 2.048-2.048 0-2.048v0zM512 265.728c-100.352 0-180.224 81.92-180.224 180.224s81.92 180.224 180.224 180.224 180.224-81.92 180.224-180.224-79.872-180.224-180.224-180.224zM512 554.496c-59.392 0-106.496-49.152-106.496-106.496s49.152-106.496 106.496-106.496 106.496 49.152 106.496 106.496-47.104 106.496-106.496 106.496z" />
<glyph unicode="&#xe91b;" glyph-name="technology" d="M1007.616 175.616l-75.776 102.4v442.368c0 65.536-53.248 118.784-118.784 118.784h-602.112c-65.536 0-118.784-53.248-118.784-118.784v-440.32l-75.776-102.4c-18.432-24.576-20.48-55.296-8.192-81.92 14.336-26.624 40.96-43.008 69.632-43.008h866.304c30.72 0 57.344 16.384 69.632 43.008 14.336 24.576 12.288 57.344-6.144 79.872zM851.968 306.688h-679.936v413.696c0 20.48 16.384 38.912 38.912 38.912h602.112c20.48 0 38.912-16.384 38.912-38.912v-413.696zM872.448 226.816l71.68-96.256h-864.256l71.68 96.256h720.896zM591.872 706.048h-159.744c-22.528 0-38.912-18.432-38.912-38.912 0-22.528 18.432-38.912 38.912-38.912h159.744c22.528 0 38.912 18.432 38.912 38.912 2.048 20.48-16.384 38.912-38.912 38.912z" />
<glyph unicode="&#xe91c;" glyph-name="browser" d="M512 960c-282.624 0-512-229.376-512-512s229.376-512 512-512 512 229.376 512 512c0 282.624-229.376 512-512 512zM954.368 482.816h-266.24c-2.048 169.984-32.768 317.44-75.776 397.312 186.368-43.008 327.68-202.752 342.016-397.312zM532.48 17.92c-6.144-8.192-12.288-12.288-20.48-12.288s-12.288 6.144-20.48 12.288c-12.288 14.336-22.528 32.768-32.768 57.344-32.768 77.824-53.248 200.704-55.296 337.92h217.088c-2.048-139.264-24.576-260.096-55.296-337.92-10.24-24.576-20.48-45.056-32.768-57.344zM403.456 482.816c2.048 139.264 24.576 260.096 55.296 337.92 10.24 24.576 20.48 45.056 32.768 57.344 6.144 8.192 12.288 12.288 20.48 12.288s12.288-6.144 20.48-12.288c12.288-14.336 22.528-32.768 32.768-57.344 32.768-77.824 53.248-200.704 55.296-337.92h-217.088zM411.648 880.128c-43.008-79.872-73.728-227.328-75.776-397.312h-266.24c14.336 194.56 155.648 354.304 342.016 397.312zM69.632 413.184h266.24c4.096-169.984 34.816-317.44 75.776-397.312-186.368 43.008-327.68 202.752-342.016 397.312zM612.352 15.872c43.008 79.872 73.728 227.328 75.776 397.312h266.24c-14.336-194.56-155.648-354.304-342.016-397.312z" />
<glyph unicode="&#xe91d;" glyph-name="qr-scanner" d="M981.4 618.6c-23.6 0-42.6 19-42.6 42.6v170.8c0 23.6-19.2 42.6-42.6 42.6h-170.6c-23.6 0-42.6 19-42.6 42.6s18.8 42.8 42.4 42.8h170.6c70.6 0 128-57.4 128-128v-170.6c0-23.6-19.2-42.8-42.6-42.8zM896-64h-170.6c-23.6 0-42.6 19-42.6 42.6s19.2 42.6 42.6 42.6h170.6c23.6 0 42.6 19.2 42.6 42.6v170.6c0 23.6 19.2 42.6 42.6 42.6s42.6-19 42.6-42.6v-170.4c0.2-70.6-57.2-128-127.8-128zM298.6-64h-170.6c-70.6 0-128 57.4-128 128v170.6c0 23.6 19.2 42.6 42.6 42.6s42.6-19 42.6-42.6v-170.6c0-23.6 19.2-42.6 42.6-42.6h170.6c23.6 0 42.6-19 42.6-42.6 0.4-23.8-18.8-42.8-42.4-42.8zM42.6 618.6c-23.4 0-42.6 19.2-42.6 42.8v170.6c0 70.6 57.4 128 128 128h170.6c23.6 0 42.6-19 42.6-42.6s-19.2-42.6-42.6-42.6h-170.6c-23.6 0-42.6-19.2-42.6-42.6v-170.6c0-23.8-19.2-43-42.8-43zM768 490.6c-23.6 0-42.6 19-42.6 42.6v128h-426.8v-128c0-23.6-19.2-42.6-42.6-42.6s-42.6 19-42.6 42.6v128c0 47 38.2 85.4 85.4 85.4h426.6c47 0 85.4-38.2 85.4-85.4v-128c-0.2-23.4-19.2-42.6-42.8-42.6zM896 362.6c0-23.6-19.2-42.6-42.6-42.6h-42.6v-85.4c0-47-38.2-85.4-85.4-85.4h-426.8c-47 0-85.4 38.2-85.4 85.4v85.4h-42.6c-23.6 0-42.6 19-42.6 42.6s19.2 42.6 42.6 42.6h682.6c23.6 0.2 42.8-19 42.8-42.6z" />
<glyph unicode="&#xe91e;" glyph-name="download-arrow" d="M881.758 72.486h-739.231c-22.577 0-40.932-18.5-40.932-40.932v-54.624c0-22.577 18.5-40.93 40.932-40.93h738.94c22.577 0 40.93 18.5 40.93 40.93v54.624c0.44 22.723-18.060 40.932-40.639 40.932zM483.52 145.752c8.012-8.012 18.5-12.091 28.841-12.091 10.488 0 20.975 4.079 28.841 12.091l279.961 279.961c15.878 15.876 15.878 41.804 0 57.973l-38.746 38.746c-15.878 15.878-41.806 15.878-57.973 0l-143.914-144.060v540.695c0 22.578-18.5 40.932-40.93 40.932h-54.624c-22.577 0-40.932-18.207-40.932-40.932v-540.84l-144.058 144.060c-15.878 15.876-41.95 15.876-57.973 0l-38.746-38.746c-15.876-15.876-15.876-41.95 0-57.973l280.253-279.817z" />
<glyph unicode="&#xe91f;" glyph-name="logo-large-white" d="M910.656 661.398c-2.345 38.302-9.38 74.26-21.887 107.090-6.253 17.197-14.852 33.612-25.795 48.464-10.162 14.070-20.324 27.359-32.831 39.866-35.176 36.739-77.386 63.316-125.85 78.168-57.844 17.979-116.47 18.76-176.66 0.782-2.345-0.782-4.69-1.563-7.035-2.345-28.14-8.598-55.499-23.45-81.295-42.992-32.831-25.014-60.189-56.281-81.295-93.020-14.070-24.232-21.887-51.591-25.014-81.295-2.345-8.598-2.345-17.197-0.782-26.577 0.782-5.472 3.127-11.725 5.472-17.197 6.253-12.507 15.634-21.887 27.359-27.359 17.197-8.598 37.521-9.38 56.281-0.782 23.45 11.725 36.739 36.739 34.394 61.753 0 2.345-0.782 3.908-0.782 6.253 0.782-2.345 0.782-3.908 0.782-6.253 0 2.345 0.782 3.908 0.782 6.253 5.472 34.394 25.795 62.534 63.316 86.766 14.070 9.38 29.704 16.415 44.556 21.887 39.084 13.289 80.513 10.944 121.942-6.253 65.661-26.577 110.217-97.71 105.527-168.061-2.345-32.049-9.38-57.063-22.669-78.95s-30.485-39.866-50.809-53.154c-3.127-0.782-17.197-8.598-21.105-11.725-46.901-23.45-247.792-122.724-292.348-143.829-2.345-1.563-4.69-2.345-6.253-3.127-28.14-13.289-42.211-45.337-29.704-75.823 2.345-6.253 6.253-12.507 10.944-17.197 16.415-17.197 40.647-23.45 61.753-16.415 1.563 0.782 3.127 0.782 4.69 1.563l25.795 11.725c3.908 1.563 282.968 138.357 282.968 138.357 2.345 0.782 5.472 2.345 7.817 3.908h0.782c60.971 30.485 107.090 83.64 128.195 148.519 3.127 9.38 6.253 17.979 8.598 27.359 7.817 28.14 10.944 56.281 10.162 83.64zM364.263 755.2c0.782 0 0.782 0 0 0 2.345 1.563 3.908 1.563 5.472 2.345-1.563-0.782-3.127-1.563-5.472-2.345zM403.347 760.672c4.69-0.782 8.598-1.563 12.507-3.908-3.908 2.345-8.598 3.127-12.507 3.908zM444.776 733.313c1.563-1.563 2.345-3.908 3.127-6.253-0.782 2.345-1.563 3.908-3.127 6.253zM689.441 209.588c-0.782 5.472-3.127 11.725-5.472 17.197-6.253 12.507-15.634 21.887-27.359 27.359-17.197 8.598-37.521 9.38-56.281 0.782-23.45-11.725-36.739-36.739-34.394-61.753 0-2.345 0.782-3.908 0.782-6.253 0 1.563 0 3.127 0 5.472 0-2.345-0.782-3.908-0.782-6.253-5.472-34.394-25.795-62.534-63.316-86.766-14.070-9.38-29.704-16.415-44.556-21.887-39.084-13.289-80.513-10.944-121.942 6.253-66.443 26.577-110.217 97.71-105.527 168.061 2.345 32.049 9.38 57.063 22.669 78.95s30.485 39.866 50.809 53.154c3.127 0.782 17.197 8.598 21.105 11.725 10.162 8.598 10.162 8.598 0 0 46.901 23.45 247.792 122.724 292.348 143.829 3.127 0.782 6.253 2.345 9.38 3.908 29.704 14.852 42.211 50.809 27.359 80.513s-50.809 42.211-80.513 27.359c-2.345-1.563-4.69-2.345-7.035-3.908l-17.197-7.817c-3.908-1.563-282.968-138.357-282.968-138.357-2.345-0.782-5.472-2.345-7.817-3.908 5.472 2.345 10.944 3.908 16.415 5.472-5.472-0.782-10.944-2.345-16.415-5.472 0 0-0.782 0-0.782-0.782-61.753-30.485-107.872-83.64-129.759-149.301-3.127-9.38-6.253-17.979-8.598-27.359-7.817-27.359-10.162-55.499-9.38-82.858 2.345-38.302 9.38-74.26 21.887-107.090 6.253-17.197 14.852-33.612 25.795-48.464 10.162-14.070 20.324-27.359 32.831-39.866 35.176-36.739 77.386-63.316 125.85-78.168 57.844-17.979 116.47-18.76 176.66-0.782 2.345 0.782 4.69 1.563 7.035 2.345 28.14 9.38 56.281 24.232 82.076 43.774 32.831 25.014 60.189 56.281 81.295 93.020 14.070 24.232 21.887 51.591 25.014 81.295 1.563 8.598 2.345 17.197 0.782 26.577z" />
<glyph unicode="&#xe920;" glyph-name="analytics" d="M288.833 555.209h164.103v-619.213h-164.103v619.213zM571.085 423.957h164.1v-487.932h-164.1v487.932zM853.333 655.875h164.105v-719.862h-164.105v719.862zM6.583 321.126h164.103v-385.097h-164.103v385.097zM929.719 960c-45.888 0-83.085-37.173-83.085-83.027 0-10.732 2.061-20.979 5.769-30.394l-160.124-136.409c-11.75 6.361-25.212 9.973-39.509 9.973-23.748 0-45.15-9.971-60.292-25.933l-138.231 56.614c0.009 0.536 0.043 1.068 0.043 1.608 0 45.855-37.201 83.027-83.088 83.027s-83.084-37.172-83.084-83.027c0-4.641 0.398-9.185 1.131-13.618l-143.612-84.911c-14.141 11.141-31.978 17.808-51.384 17.808-45.888 0-83.086-37.172-83.086-83.027s37.199-83.028 83.086-83.028c45.888 0 83.084 37.174 83.084 83.028 0 4.641-0.398 9.185-1.131 13.618l143.612 84.911c14.141-11.141 31.978-17.808 51.386-17.808 23.747 0 45.15 9.971 60.293 25.932l138.231-56.613c-0.013-0.536-0.043-1.068-0.043-1.606 0-45.855 37.197-83.027 83.085-83.027s83.085 37.172 83.085 83.027c0 9.608-1.651 18.826-4.655 27.409l161.894 137.916c11.051-5.433 23.475-8.498 36.625-8.498 45.888 0 83.089 37.172 83.089 83.027s-37.201 83.027-83.089 83.027z" />
<glyph unicode="&#xe92a;" glyph-name="unlink" d="M250.857 224.571l-146.286-146.286c-4-3.429-8.571-5.143-13.143-5.143s-9.143 1.714-13.143 5.143c-6.857 7.429-6.857 18.857 0 26.286l146.286 146.286c7.429 6.857 18.857 6.857 26.286 0 6.857-7.429 6.857-18.857 0-26.286zM347.429 201.143v-182.857c0-10.286-8-18.286-18.286-18.286s-18.286 8-18.286 18.286v182.857c0 10.286 8 18.286 18.286 18.286s18.286-8 18.286-18.286zM219.429 329.143c0-10.286-8-18.286-18.286-18.286h-182.857c-10.286 0-18.286 8-18.286 18.286s8 18.286 18.286 18.286h182.857c10.286 0 18.286-8 18.286-18.286zM941.714 256c0-44-17.143-85.143-48.571-116l-84-83.429c-30.857-30.857-72-47.429-116-47.429s-85.714 17.143-116.571 48.571l-190.857 191.429c-9.714 9.714-17.143 20.571-24 32l136.571 10.286 156-156.571c20.571-20.571 57.143-21.143 77.714-0.571l84 83.429c10.286 10.286 16 24 16 38.286 0 14.857-5.714 28.571-16 38.857l-156.571 157.143 10.286 136.571c11.429-6.857 22.286-14.286 32-24l192-192c30.857-31.429 48-72.571 48-116.571zM589.143 669.714l-136.571-10.286-156 156.571c-10.286 10.286-24 16-38.857 16s-28.571-5.714-38.857-15.429l-84-83.429c-10.286-10.286-16-24-16-38.286 0-14.857 5.714-28.571 16-38.857l156.571-156.571-10.286-137.143c-11.429 6.857-22.286 14.286-32 24l-192 192c-30.857 31.429-48 72.571-48 116.571s17.143 85.143 48.571 116l84 83.429c30.857 30.857 72 47.429 116 47.429s85.714-17.143 116.571-48.571l190.857-191.429c9.714-9.714 17.143-20.571 24-32zM950.857 621.714c0-10.286-8-18.286-18.286-18.286h-182.857c-10.286 0-18.286 8-18.286 18.286s8 18.286 18.286 18.286h182.857c10.286 0 18.286-8 18.286-18.286zM640 932.571v-182.857c0-10.286-8-18.286-18.286-18.286s-18.286 8-18.286 18.286v182.857c0 10.286 8 18.286 18.286 18.286s18.286-8 18.286-18.286zM872.571 846.286l-146.286-146.286c-4-3.429-8.571-5.143-13.143-5.143s-9.143 1.714-13.143 5.143c-6.857 7.429-6.857 18.857 0 26.286l146.286 146.286c7.429 6.857 18.857 6.857 26.286 0 6.857-7.429 6.857-18.857 0-26.286z" />
</font>
</defs>
</svg>
