<?xml version="1.0" standalone="no"?>
<!DOCTYPE svg PUBLIC "-//W3C//DTD SVG 1.1//EN" "http://www.w3.org/Graphics/SVG/1.1/DTD/svg11.dtd" >
<svg xmlns="http://www.w3.org/2000/svg">
<metadata></metadata>
<defs>
<font id="finger_paintregular" horiz-adv-x="0" >
<font-face units-per-em="2048" ascent="1638" descent="-410" />
<missing-glyph horiz-adv-x="716" />
<glyph horiz-adv-x="2048" />
<glyph horiz-adv-x="2048" />
<glyph unicode="&#xd;" horiz-adv-x="716" />
<glyph />
<glyph />
<glyph />
<glyph />
<glyph />
<glyph />
<glyph />
<glyph />
<glyph unicode="&#x9;" />
<glyph />
<glyph />
<glyph />
<glyph />
<glyph />
<glyph />
<glyph />
<glyph />
<glyph />
<glyph />
<glyph unicode=" "  horiz-adv-x="716" />
<glyph unicode="&#x09;" horiz-adv-x="716" />
<glyph unicode="&#xa0;" horiz-adv-x="716" />
<glyph unicode="!" horiz-adv-x="638" d="M143 580v55l23 2q-4 23 -6 44t-2 44q0 66 10 132.5t10 131.5q0 16 -1 30.5t-3 31.5h-12q-2 -78 -10 -152q-6 -63 -9 -129q0 131 9 262q8 139 18 283q27 49 27 102q6 -2 16 -2t18.5 1t16.5 1t14 -9t6 -15l-2 -21l23 -2q10 23 30.5 46.5t49.5 23.5q18 0 29.5 -12.5 t17.5 -30t7 -36t1 -32.5q0 -94 -8 -186t-18.5 -185.5t-18.5 -185.5t-8 -186q0 -23 8 -42.5t8 -41.5q0 -14 -9 -21.5t-22 -9.5q-8 29 -16 57q-6 25 -8 52q0 -59 14 -111l-33 -8l9 -27q-16 -45 -60 -45q-27 0 -41 23.5t-21 58.5t-8.5 75t-1.5 72q0 72 3 142q4 63 4 127 l-7 -103q-4 -59 -4 -118q0 -63 1 -125t8 -125q-23 16 -33 43.5t-14.5 58.5t-4.5 62zM164 88q0 25 20.5 52.5t50 52t62.5 41t55 16.5h70q20 0 37.5 -9.5t38.5 -9.5l16 2l18 -10l3 -12l-3 -21q-37 8 -74.5 13.5t-76.5 9.5q37 -10 76 -14t73 -19l-6 -35h11l2 -18 q0 -23 -7.5 -46.5t-15.5 -45.5q-14 10 -36.5 21.5t-39.5 11.5q-6 0 -14 -3.5t-12 -5.5q25 0 52.5 -6t43.5 -30q-2 -10 -14 -23l-27 12v23l-18 -6l-35 6q-18 -4 -21 -19l6 -8q16 8 33 8q2 0 4 -2h2q-18 -2 -28 -10t-27 -24l-18 4l-7 -4q-16 10 -32.5 18t-32.5 18l6 7l-18 12 q-12 0 -32 2t-39.5 7t-32.5 15.5t-13 28.5zM332 702q2 31 6 58q4 33 8 65q-6 -31 -10 -63q-4 -29 -4 -60zM455 14l2 -2z" />
<glyph unicode="&#x22;" horiz-adv-x="806" d="M102 778q6 14 8.5 29.5t2.5 32.5v20h22q-2 10 -3 20.5t-1 20.5q0 41 7 82t7 82q0 31 -6 61h-12q0 -88 -6 -170v148q0 51 2 102t12 103q12 16 23.5 33.5t11.5 37.5q6 -2 18.5 -3t23.5 -3t19.5 -7t8.5 -15q0 -8 -4 -17l20 -4q28 29 63 29q31 0 49.5 -13.5t18.5 -46.5 q0 -66 -8 -130t-18.5 -127.5t-18.5 -122t-8 -107.5q0 -6 1 -18.5t1 -26.5q0 -18 -5 -32.5t-22 -14.5q-6 0 -18 4q8 25 8 53v13q0 8 -2 14q-2 -20 -7 -38.5t-9 -37.5l-33 8q0 -8 -5 -15t-16 -7q-29 0 -47 17.5t-43 27.5q8 0 14.5 25.5t10.5 61.5t6 76t2 68v35q-2 -14 -4 -57 t-7 -88t-13.5 -81t-20.5 -36q-4 0 -11.5 5t-11.5 9zM113 870l2 17v-13zM115 887q0 10 1 18t3 19zM119 942q0 6 2 10q0 -4 -2 -8v-2zM301 864l12 76q-4 -16 -8 -31q-4 -20 -4 -37v-8zM422 809q6 10 8 24.5t2 28.5v17h23q-2 10 -2 16v18q0 37 6 74t6 76q0 27 -6 55h-13 q0 -45 -4 -89t-6 -89l-2 104v19q0 76 12.5 144.5t45.5 140.5q6 -2 16 -5l22 -4q12 -2 20.5 -7t8.5 -13q0 -6 -4 -14l20 -5q16 14 35 18.5t39 4.5q27 0 41.5 -18.5t14.5 -42.5q0 -23 -8.5 -83.5t-17.5 -129t-17.5 -129t-8.5 -80.5q0 -8 1 -19.5t1 -23.5q0 -16 -5 -30.5 t-23 -14.5q-8 0 -17 4q4 16 4 30v33l-14 -57l-33 8l-16 -18q-20 0 -45 17t-43 28q6 4 10 32q6 33 9 72t5 76t2 49q-4 -27 -6 -65.5t-6 -73.5t-10 -60.5t-16 -25.5q-18 0 -29 8zM432 889l4 41v-19q0 -8 -2 -18zM459 799q2 0 4 -2h-2zM621 885q2 0 2 8t2 12l16 86 q-6 -23 -13 -47t-7 -47v-12z" />
<glyph unicode="#" horiz-adv-x="1439" d="M102 967q0 23 20.5 35t49.5 18t56.5 7t43.5 1q51 0 61.5 27.5t10.5 70.5q0 59 14.5 118t14.5 118q4 -2 12 -2t16.5 2t16.5 2q16 0 22 -13.5t6 -27.5l-2 -23l21 -2q2 12 9 30t17.5 33t22.5 26.5t29 11.5q20 0 32.5 -17.5t17.5 -42t6 -50t1 -40.5q0 -51 -4 -101t-8 -101 q29 2 54.5 3t53.5 1q6 70 30 134t30 134l16 -6q4 0 10 1t11 1q14 0 23 -6t9 -25q0 -12 -4 -33l23 -2q4 12 12 26.5t18.5 28t23.5 22.5t28 9q16 0 26.5 -10t15.5 -24.5t6 -31t1 -28.5q0 -51 -6 -102.5t-21 -100.5q33 -2 89.5 -4t111.5 -7t96 -14t41 -24l-2 -12q-86 8 -172 12 l-172 8q86 -10 171 -14t171 -16l-2 -35h31q27 -16 26 -47q0 -23 -12 -38.5t-29 -27.5q-84 27 -187 32t-191 5l-3 -6q92 -6 183.5 -11t181.5 -32q-27 -20 -55 -21q-43 0 -87 6.5t-87 8.5v22q-23 -4 -43 -4h-97q-6 -61 -21.5 -125.5t-33.5 -124.5q27 -4 76 -8t96 -12t83 -17.5 t36 -21.5l-2 -12q-152 8 -301 30q74 -14 148.5 -22t150.5 -19l-2 -34l26 -2q23 -18 23 -45q0 -20 -10.5 -36t-24.5 -30q-84 25 -170 33l-172 16q82 -14 165 -25.5t163 -35.5q-25 -20 -51 -21q-39 0 -77 7.5t-77 11.5l2 22q-12 -2 -23.5 -3t-23.5 -1q-20 0 -41 2t-43 6 l-2 -12l110 -12l-112 8q-6 -31 -11.5 -84t-11.5 -104.5t-16 -89.5t-25 -38l-12 3q12 78 16 157q4 78 15 154q-14 -76 -21 -152q-6 -78 -20 -155q-12 4 -17 4q-20 0 -20 -33l-10 -18q6 2 18 2q16 0 28.5 -8.5t12.5 -26.5l-10 -21q4 -4 4 -6q0 -4 -8 -7t-18.5 -5t-18.5 -3 t-10 -1q-39 0 -60 30l-4 3q-10 18 -17 37.5t-18 37.5v56v14l-12 -47q-10 16 -13 34.5t-3 36.5q0 47 5 96.5t15 96.5l23 -2v22q0 12 2 25l-19 -8v8h-82q-2 -18 -8 -70.5t-17 -107.5t-26.5 -98t-36.5 -43l-2 6q0 43 12.5 84t12.5 84v12q-8 -47 -21 -92q-10 -47 -14 -94l-18 2 l-15 -11q0 -25 17.5 -43t17.5 -30q0 -23 -16.5 -32t-34.5 -9q-53 0 -72.5 41t-19.5 86q0 68 18.5 133t22.5 133q-12 -72 -35 -144.5t-23 -144.5l2 -12q-10 20 -17 41.5t-7 44.5q0 55 14 109.5t25 109.5l22 -2v51q-23 6 -44 9t-38.5 7.5t-28 15.5t-10.5 36q0 16 11.5 21 t25.5 5h13v23q-25 10 -48.5 29.5t-23.5 48.5q0 20 15.5 32.5t36 17.5t43 6t36.5 1q18 0 28.5 22.5t14.5 52.5t6 59.5t4 41.5l-41 -2q-33 12 -65.5 16.5t-67.5 4.5q2 4 2 12t-2 16t-2 17q0 20 14.5 23t28.5 3h12v23q-27 8 -55.5 26.5t-28.5 51.5zM293 600q12 2 19 25.5 t11.5 53.5t7.5 58.5t3 38.5q-12 0 -19.5 -24.5t-11.5 -54t-6 -58.5t-4 -39zM492 354l59 -4l20 19h-41q-29 0 -38 -2l2 -7zM535 600q10 0 18 1t18 1t19.5 -1t19.5 -1l37 188h-80q-2 -18 -4 -43.5t-6 -53t-10 -52.5t-12 -39zM571 352l17 8v11q-16 0 -17 -19zM580 809 q4 -4 4 -10l-2 -2l92 10l2 16q-18 -2 -48 -6t-48 -8zM618 600l15 -2q12 49 22.5 98t16.5 99q-10 -2 -19.5 -28t-16.5 -59.5t-11 -64.5t-7 -43z" />
<glyph unicode="$" horiz-adv-x="1308" d="M102 1231q0 96 43 160.5t111 102.5t152 54.5t163 16.5q14 0 27.5 22.5t25 51t18.5 56t11 40.5q8 -8 18.5 -9.5t19.5 -2.5t16.5 -6t7.5 -19q0 -16 -5 -32.5t-12 -33.5l21 -6q6 12 17.5 30.5t24.5 34t29.5 27t32.5 11.5q23 0 29 -21.5t6 -38.5q0 -35 -7 -66.5t-15 -64.5 q37 -12 69.5 -21.5t65.5 -20.5t63.5 -27.5t61.5 -41.5q-10 0 -13.5 -7t-5.5 -15t-5 -15.5t-13 -7.5q-39 16 -77 30.5t-77 27.5l-4 -21q18 -6 40 -18t42.5 -28.5t33.5 -36t13 -42.5q0 -12 -8 -23t-21 -14q-66 35 -116.5 46.5t-104.5 19.5q-16 -66 -26.5 -141.5t-20.5 -141.5 q10 -2 21.5 -3t21.5 -1q84 0 162 -45t137.5 -113.5t95 -153.5t35.5 -165q0 -104 -54 -179t-137 -122t-181.5 -69.5t-186.5 -22.5q0 -49 11.5 -97.5t11.5 -97.5q0 -14 -6.5 -28.5t-22.5 -14.5q-10 45 -18 86q-6 41 -11 82q0 -10 2 -35q2 -27 5.5 -55.5t6.5 -51t3 -26.5l-17 2 l-18 -6l12 -49q0 -6 -1 -19.5t-4 -25.5t-8 -21.5t-15 -9.5q-35 0 -54.5 17.5t-29 46t-12.5 62.5t-3 69v74q0 27 -2 43t-12 16q0 -61 2 -121.5t8 -122.5q-37 51 -43 113.5t-8 122.5q-16 -4 -42 -6t-54 -2q-31 0 -58.5 4t-38.5 20q4 8 34 10t65 4.5t63.5 4.5t30.5 12 q-47 -4 -92 -7t-92 -3l8 20l-142 31l37 35l-32 37l63 24q14 -4 49 -6t76 -2t77 3t44 7l18 14q-78 -6 -141 -6h-41q-18 0 -39 2q49 16 100.5 23.5t102.5 15.5q6 123 13 243t20 243q-66 23 -128.5 58.5t-111.5 83.5t-80 110.5t-31 138.5zM322 913q31 -18 77.5 -37.5 t81.5 -31.5l2 16q-35 10 -82 27.5t-77 36.5zM352 1239q0 -20 14.5 -40.5t35 -39t44 -33t39.5 -22.5q8 51 18.5 111.5t20.5 111.5l-139 -27q-6 -16 -19.5 -32.5t-13.5 -28.5zM422 354l16 2q0 121 12.5 239t28.5 236l-18 7q-12 -123 -20.5 -242t-18.5 -242zM465 360h4 q10 102 14 203q4 98 13 195q-14 -96 -21 -195q-4 -100 -10 -203zM612 387q18 63 19 129q2 61 10 123q-12 -61 -20 -121q-9 -65 -9 -131zM649 201q10 -2 17.5 -3t13.5 -1q27 0 47.5 7t48.5 15zM655 348q39 6 76 15.5t74 19.5l-150 -31v-4zM657 395q39 10 78 18.5t78 18.5 l21 -16q25 8 51 19t49.5 26.5t38 38t14.5 53.5t-18.5 74t-47 84t-63.5 69.5t-67 28.5q-23 0 -42.5 1t-41.5 3l-5 -18q45 0 89 -13q-25 0 -45.5 1t-43.5 3q-20 -98 -28 -195t-17 -196zM817 829q39 -14 75 -43.5t63.5 -68.5t44 -83t16.5 -85q0 -35 -15.5 -60.5t-42.5 -46.5 q35 10 50.5 44t15.5 67q0 39 -18.5 83t-47 83t-66.5 68.5t-75 41.5zM829 768q61 -29 103.5 -82t42.5 -131q0 -39 -29 -68q8 20 16.5 36.5t8.5 39.5q0 20 -12.5 49t-33 58.5t-46 55.5t-50.5 42zM1008 297q27 14 49 33.5t45 42.5l8 28q-16 -25 -47 -56.5t-55 -47.5zM1130 420 q18 29 26.5 63.5t8.5 69.5t-10 80q6 -41 6 -74q0 -35 -7 -68.5t-24 -70.5z" />
<glyph unicode="%" horiz-adv-x="1687" d="M102 961q0 82 37 149l27 -14q4 43 13 86t27.5 77.5t51.5 57t86 22.5q31 0 59.5 -10t59.5 -10q43 0 86 9t86 15q193 25 391 25q115 0 227.5 -7t227.5 -18q4 -35 9 -67.5t5 -67.5q0 -94 -45 -183t-119 -173t-166 -163t-186 -152.5t-180 -140t-146 -128.5q-16 -16 -48 -53 t-66.5 -75t-66.5 -68.5t-48 -32.5l-12 12q78 88 152.5 176t168.5 158q-41 -23 -85 -61.5t-87 -84.5t-82 -92.5t-69 -83.5l-21 25q-10 -12 -32.5 -33.5t-47 -43t-49 -37t-39.5 -15.5q-8 0 -13 8t-5 15q0 72 69.5 159.5t177 186t236.5 202t249 205t215 198.5t132 181h-6 q-59 -100 -144 -190t-180.5 -172t-196 -158t-190.5 -148q-84 -66 -156.5 -141.5t-144.5 -150.5q51 94 120 168.5t147.5 141t160.5 130t160 131.5l14 -16q104 92 201.5 191t175.5 216q-141 0 -268 -4t-252 -16q80 -127 80 -271q0 -29 -3 -54.5t-5 -53.5q-80 -4 -159 -13.5 t-159 -9.5q-63 0 -129.5 13.5t-121 44t-89.5 82t-35 127.5zM176 948q0 -23 11.5 -40t21.5 -40l18 15q-10 14 -16 30.5t-6 32.5t4 29.5t8 28.5l-39 -9l-2 -43v-4zM324 983q0 -4 2 -9t4 -9l20 -23q8 -8 24.5 -14t37 -11.5t39 -7.5t28.5 -2h33q19 0 35 2q-8 14 -23.5 35 t-32 41.5t-34 37.5t-31.5 30q-18 -4 -35.5 -6.5t-33 -8.5t-24.5 -18t-9 -37zM707 1118l10 -14q96 10 190 15t191 5h63q33 0 66 -2l8 17q-35 2 -72 2h-71q-98 0 -193.5 -4t-191.5 -19zM879 162q0 90 36.5 159.5t97 116.5t138.5 70.5t162 23.5l2 -40q66 -16 123 -50t96 -92 l-18 -12q47 -66 47 -145q0 -74 -37 -123.5t-93.5 -79t-123 -43t-125.5 -13.5q-55 0 -108.5 9.5t-100.5 44.5l-8 -8q43 -39 100 -51.5t115 -12.5q61 0 129.5 16.5t128 50t98.5 86t39 126.5q0 61 -25 120q12 -27 22.5 -55.5t10.5 -56.5q0 -74 -38 -129.5t-95 -93t-128 -56 t-134 -18.5q-61 0 -117.5 14t-99.5 46t-68.5 80t-25.5 116zM889 754l16 12zM905 766q45 39 84 76q49 45 98 94q-47 -53 -96 -98q-41 -35 -86 -72zM1094 942q68 70 120 154q-14 -43 -50.5 -83t-69.5 -71zM1120 705q55 47 114.5 102t110 118.5t82 135.5t31.5 151l-2 29 q0 -68 -36 -143.5t-87 -147t-109.5 -136t-103.5 -109.5zM1130 172q18 -10 37 -18.5t50 -8.5q33 0 70.5 15.5t58.5 38.5q0 41 -27 53t-59 12q-8 0 -15.5 -1t-15.5 -1l-21 6q-23 -23 -46.5 -44t-31.5 -52zM1153 1169q11 0 21 -2q23 0 46 -1t44 -1h34l2 2zM1233 1122q10 0 13 3 t7 14q-16 -1 -20 -17zM1239 451q74 0 148.5 -34t113.5 -100q-12 25 -36.5 50.5t-55.5 46t-63.5 33t-61.5 12.5q-10 0 -22.5 -2t-22.5 -4v-2zM1266 -31q47 6 95 22.5t87 45.5t63.5 71t24.5 97q0 16 -4 32.5t-10 32.5q4 -18 7 -33.5t3 -31.5q0 -51 -23.5 -92t-62.5 -70 t-86 -47.5t-94 -26.5zM1278 303q20 -14 42.5 -21.5t39.5 -21.5q-16 16 -35.5 24.5t-38.5 22.5zM1278 1122l8 -2l6 17q-10 0 -14 -15zM1358 152q12 8 22.5 19.5t10.5 31.5q0 8 -5 20v-14q0 -20 -9 -33.5t-19 -23.5z" />
<glyph unicode="&#x26;" horiz-adv-x="1673" d="M102 229q0 92 32 167t79 135.5t100.5 110.5t98.5 95l-23 25q-47 45 -76.5 86t-50 81t-36 82t-31.5 91l-9 74q0 80 26 121.5t73 88.5q27 14 54.5 18.5t55.5 4.5q37 0 77 -4t83 -6q57 -29 116.5 -42.5t112 -32.5t93.5 -57t63 -116q2 -23 2 -37v-24q0 -53 -14.5 -102.5 t-39 -94.5t-55 -86t-61.5 -78q68 -76 144.5 -149.5t127.5 -165.5q119 88 193 141t115 82t59.5 39t26.5 10q6 0 10 -12q-86 -80 -185.5 -144.5t-195.5 -142.5l2 -4q94 76 193.5 137.5t185.5 138.5q0 -12 2 -19t18 -7q37 37 52.5 47t40.5 10q8 0 19 -3t11 -25q0 -47 -24.5 -84 t-64.5 -70t-88 -62.5t-95 -60.5l-129 -86q-4 -4 -17.5 -13.5t-13.5 -13.5l4 -4q104 68 212 138.5t208 160.5q-31 -41 -77 -86t-98 -88t-108.5 -83t-109.5 -70q39 -41 76 -81t77 -77q-10 0 -14 -7t-7 -14.5t-5 -14.5t-10 -7q-10 0 -52.5 28.5t-117.5 118.5l-17 -14 q78 -98 126 -168t87 -108q8 -10 9 -14.5t1 -8.5q0 -10 -12 -10h-8q-23 0 -58.5 19.5t-79.5 53t-92.5 77.5t-93.5 91q-59 -39 -115.5 -69.5t-129.5 -57.5l-19 13q-35 -10 -68.5 -22.5t-56.5 -12.5q-47 -8 -84 -12t-73 -4q-84 0 -136.5 16t-87 42t-56 60.5t-40.5 71.5 q-10 35 -12 58.5t-2 45.5q0 82 30.5 153t76.5 131.5t100.5 110.5t101.5 91l-10 12l-74 -67q-29 -27 -70 -68t-77.5 -94t-63.5 -120t-27 -144q0 -20 4.5 -49t14.5 -72q31 -59 66.5 -97t77.5 -59.5t90.5 -30t101.5 -8.5q35 0 83 7.5t95 15.5v-4q-16 -2 -37.5 -6.5t-46.5 -7.5 t-48.5 -5t-41.5 -2q-139 0 -223 50t-119 143q-12 23 -16.5 54.5t-4.5 61.5zM150 229q0 -90 32 -143q2 -2 2 -4q-16 29 -16 68q-10 33 -11 55t-1 41q0 70 27.5 133t70.5 120.5t95 107.5t100 91l-3 2q-33 -31 -83 -75.5t-98 -104t-81.5 -132.5t-33.5 -159zM184 82 q33 -49 78 -74q49 -27 102.5 -35t96.5 -8q137 0 263 45t245 125l-2 4q-121 -80 -249 -124t-296 -44q-4 0 -43 5.5t-85 23.5t-85 53q-14 12 -25 29zM297 219q0 -12 4 -26l2 -9q0 -23 14.5 -36t37 -22t50 -12t52.5 -3q92 0 170 21.5t151 60.5q-90 -43 -215 -68 q-27 -4 -51.5 -8t-50.5 -4q-20 0 -47 3t-50.5 10t-40 20.5t-16.5 33.5l-2 10q-6 18 -6 35q0 78 50 149.5t132 143.5q-35 -29 -66.5 -60.5t-57 -66.5t-42 -71.5t-18.5 -75.5v-25zM340 233q0 -8 2 -15t2 -15l2 -6q0 -14 20.5 -25.5t79.5 -15.5q27 0 59 4t87 10q29 0 61.5 10 t66.5 25.5t64.5 34t57.5 34.5q-25 27 -55.5 64t-64.5 77t-70 77.5t-68 66.5q-49 -43 -93.5 -84t-78 -82t-53 -81t-19.5 -79zM442 1161q2 -72 48.5 -133t103.5 -119q0 4 4 4q39 47 60.5 87t27.5 87q-14 8 -63.5 23.5t-128.5 38.5q-8 2 -18.5 5t-12.5 5q-14 0 -21 2zM530 1159 q6 -4 7 -8q0 -4 -2 -4q41 -10 79.5 -21.5t71.5 -27.5v8l-8 12q-35 16 -72 23.5t-76 17.5zM600 903l12 -12q47 55 74 104t27 107l-19 16q0 -6 -2 -6l-8 4q4 -4 10 -15t6 -16q0 -4 -2 -4t-4 2q0 -43 -32 -96q-4 -6 -13.5 -18.5t-21 -25.5t-19.5 -24.5t-8 -15.5z" />
<glyph unicode="'" horiz-adv-x="487" d="M102 934q6 14 8.5 29.5t2.5 31.5h20q-2 10 -2 29q0 37 6 69.5t6 71.5q0 12 -1 24.5t-5 24.5h-10q0 -47 -2 -105t-12 -101v108q0 86 9 160t50 151q6 -2 16.5 -4t21.5 -5t19.5 -8t8.5 -13q0 -4 -5 -13l23 -4q29 18 55 19q29 0 51.5 -13.5t22.5 -46.5q0 -84 -16.5 -168 t-22.5 -161l-6 -19q-2 -6 -4 -14t-2 -14t1 -16.5t1 -20.5q0 -18 -6 -35t-23 -17q-4 0 -9 2.5l-9 4.5q10 37 12 77q-4 -20 -10 -38.5t-12 -34.5l-31 10q-4 -16 -19 -16q-12 0 -23 7t-20.5 16t-18.5 16.5t-20 7.5q8 12 12.5 40.5t6.5 61.5t3 63.5t1 43.5q-2 -10 -4 -44t-7 -70 t-11.5 -64.5t-16.5 -28.5zM139 930l8 -4l-4 -2v2zM301 1006l2 4v-2l10 67q-4 -18 -6 -35.5t-6 -33.5z" />
<glyph unicode="(" horiz-adv-x="950" d="M102 705q0 197 61.5 387t182.5 348q53 72 124 125t140 106q6 -10 20.5 -23.5t14.5 -23.5q0 -8 -8 -19.5t-20.5 -21.5t-23.5 -19.5t-18 -15.5l15 -16q29 18 62.5 32.5t68.5 14.5q12 0 26.5 -5t14.5 -22q0 -20 -30 -55t-75 -86t-98 -122.5t-98 -166t-75 -215.5t-30 -270 q0 -90 14.5 -180t49.5 -174l4 -9l-2 2q12 -53 49 -88.5t83 -59.5t97 -38t94 -24.5t71 -18.5t28 -20l-2 -9q-94 6 -187.5 29t-171.5 80q74 -59 167 -84t186 -35l-7 -22l21 -15h8q12 0 28.5 -1t30 -5t23.5 -13t10 -24q0 -29 -24.5 -44t-46.5 -23q-174 35 -299 72.5t-210 109.5 t-135.5 190.5t-72.5 315.5q14 -172 60 -294t128 -204t205 -130t291 -73q-45 -16 -90 -16q-104 0 -211 43t-185 109l15 16q-80 55 -128 141t-74 184.5t-34 201t-8 192.5q0 51 2 102t8 103l-10 4q-18 -115 -18 -230q0 -76 11 -169t35.5 -187t61.5 -178q35 -78 84 -131 q-57 59 -94 137q-39 82 -63.5 173t-35 183t-10.5 179zM330 485q4 -63 22 -139t51 -133q-4 12 -9 24.5t-11 22.5l2 -2q-25 53 -37 113q-12 57 -18 114z" />
<glyph unicode=")" horiz-adv-x="808" d="M0 -195q0 18 7 37t18 35q92 61 164.5 121.5t127 131.5t91 156t59.5 197q-23 -104 -57.5 -187t-87 -151.5t-122 -127t-161.5 -109.5q27 43 63 78l74 65q37 35 73 70t62 78l19 -13q76 141 111.5 304t35.5 323q0 45 -4 90t-14 88q0 -6 -4 -6q-6 0 -6 2q4 -45 6 -90 q4 -45 4 -94q0 -147 -29 -295q-27 -145 -92 -260q31 59 53 127q23 72 36 147.5t18.5 149t5.5 141.5q0 102 -18.5 212t-66 203t-126 158.5t-199.5 81.5q2 6 2 19v20q0 12 6 20.5t29 8.5q16 0 33.5 -4t33.5 -8l5 20q-12 4 -37 14.5t-50.5 24.5t-44 29.5t-18.5 32.5 q0 14 13.5 22t31.5 11t37 4t29 1q102 0 187 -37.5t151.5 -103t114.5 -150.5t80 -178.5t47.5 -189.5t15.5 -182q0 -82 -11.5 -181.5t-34 -200t-56.5 -193.5t-79 -163q-18 -29 -64 -84t-100.5 -111t-107.5 -100.5t-84 -46.5l-18 17q106 80 185 160.5t137 173t97 200t66 236.5 q-31 -131 -69 -236.5t-94 -195.5t-136 -170t-191 -158l-18 29q-12 -18 -40 -32.5t-50 -14.5q-39 0 -39 34zM336 244l2 4z" />
<glyph unicode="*" horiz-adv-x="1482" d="M104 977q68 -8 123 -12t117 -11q-63 2 -120.5 8.5t-119.5 14.5zM104 991l13 209l20 4q4 0 11.5 -1t33.5 -1q14 0 32.5 1t45.5 1l-2 23q66 4 130.5 8t129.5 8q4 47 7 88t3 88v60q0 31 -2 71h250l10 -14l15 -2q0 -23 1 -52.5t4 -63.5t8 -68.5t15 -65.5q98 20 180.5 38.5 t147.5 25.5q-76 -29 -154.5 -55.5t-162.5 -43.5l4 -12q57 10 115.5 29.5t117 38t117.5 32t119 13.5q31 0 49 -5.5t18 -17.5t-21.5 -32.5t-72.5 -49.5q-57 -16 -93 -28.5t-36 -22.5t19 -20q-66 -20 -132.5 -36t-132.5 -28l13 -6q66 12 131 27.5t131 35.5q8 -8 8 -10 q0 -10 -68.5 -35.5t-193.5 -50.5q27 -12 61.5 -30.5t59.5 -34.5l250 -162l-310 -56q29 -98 44.5 -145t15.5 -76q0 -4 -3 -10t-12 -6q-16 0 -37.5 19.5t-46 52t-51 77.5t-51.5 99q-10 2 -31 10q41 -94 55.5 -138t14.5 -63q0 -14 -19 -14h-14q-18 0 -20 -14q-33 76 -65 149.5 t-62 151.5l-17 14q-10 -37 -35.5 -82t-62.5 -86l-203 -217l-8 297v24q0 61 14 117q-10 2 -20 3t-21 1l68 2q0 4 1 6.5t1 4.5q-66 8 -143.5 10t-145.5 12q-2 -2 -6 -2q-8 0 -15 3t-14 3zM109 1024q10 51 14 81l6 45t3 19.5t3 6.5h-16zM326 997h18l70 -4q2 2 2 6q-10 2 -23 2 h-20q-12 0 -24.5 -1t-22.5 -3zM340 1188h20q8 0 15 -2q8 0 31.5 2t46 3t41 4t18.5 7q-18 -2 -47 -4t-56.5 -4t-48.5 -4zM393 864l13 -8q0 23 6 45q4 8 5 21.5t5 23.5q-4 2 -12 2q-8 -23 -10.5 -42t-6.5 -42zM424 993q4 -2 14 -2q0 2 1 4t1 4h-8q-8 0 -8 -6z" />
<glyph unicode="+" horiz-adv-x="1124" d="M102 768q0 20 13.5 32.5t33 18.5t41 7t35.5 1q39 0 77 -4t77 -4q8 0 16 1t17 1q-6 135 -6 269q12 25 16 51t4 53l14 -2q8 0 15.5 1t15.5 1q12 0 20.5 -5t8.5 -22l-2 -16h22q10 25 30.5 45.5t49.5 20.5q20 0 33.5 -27t21 -67t10.5 -89t4 -95t1 -83v-51q63 -8 124.5 -21.5 t125.5 -13.5q12 0 26.5 2t26.5 2q18 0 31.5 -8t13.5 -33q-82 4 -160 6q-55 2 -110 11q55 -8 110 -13q78 -6 158 -16q-2 -6 -2 -16q0 -12 2 -17h24q23 -18 23 -49q0 -35 -29 -64q-16 6 -68.5 13.5t-113.5 13.5t-116.5 10t-76.5 4q92 -10 182.5 -21t180.5 -34 q-10 -10 -22.5 -16t-26.5 -6q-35 0 -69 5t-68 9v22q-12 -2 -24.5 -3t-25.5 -1q-33 0 -64.5 4.5t-66.5 8.5q10 -10 27 -17q14 -4 27 -8l-54 4q-2 -41 -8 -84t-6 -84q0 -10 3 -29.5t3 -37.5t-6 -31.5t-25 -13.5q-6 35 -8 70.5t-2 70.5l-8 -141q-4 0 -8 1t-8 1t-8.5 -1t-8.5 -1 v-27q-20 -27 -49 -27q-18 0 -32.5 8.5t-30.5 18.5q6 14 10 45t5 68t2 71.5t1 59.5v65q-8 -74 -11 -148.5t-20 -148.5q-10 10 -18 21.5t-8 27.5q0 35 3 65t3 64l20 11q-4 23 -6 42t-2 42q0 6 1 13t1 15q-14 -20 -13 -41.5t-3 -44.5v86q-47 0 -96.5 2t-96.5 2q-43 23 -98 23 q2 4 2 12q0 10 -2 18.5t-2 18.5q0 25 27 25l16 -2v22q-23 10 -44.5 29.5t-21.5 48.5zM418 944q2 -4 2 -23.5t1 -41t3 -39t8 -17.5l-2 121h-12zM725 754l23 -4z" />
<glyph unicode="," horiz-adv-x="608" d="M20 -117q0 12 10.5 26.5t25 29t28.5 25.5t25 20l16 -17q14 20 39 41l49 43q25 23 44 44.5t24 43.5l-11 6q-20 -49 -69 -89t-88 -68q33 31 68.5 63.5t65 69.5t48 79t18.5 97q12 4 26.5 8t29.5 4q18 0 18 -24h21q14 23 34.5 39t49.5 16q33 0 44 -32t11 -58q0 -41 -10.5 -88 t-29 -92t-45 -85t-59.5 -65q-12 -8 -42.5 -34.5t-65.5 -56.5t-63.5 -52.5t-36.5 -22.5q-6 0 -16.5 5.5t-14.5 9.5q41 47 88 86t100 71q-53 -29 -102 -67.5t-92 -81.5l-29 18l-18 -12q-29 0 -52.5 19.5t-29.5 45.5q61 45 121.5 99.5t111.5 109.5q-59 -51 -117.5 -99 t-121.5 -93z" />
<glyph unicode="-" horiz-adv-x="851" d="M82 702q0 35 28.5 47.5t63.5 12.5q23 0 43.5 -2t42.5 -2q33 0 63.5 5t61.5 5q18 0 51 -2t72 -7t77 -12.5t66 -17.5q14 0 29.5 2t28.5 2q20 0 24 -11t4 -24v-6q-61 0 -123 2q-53 4 -104 15q49 -12 104 -15q63 -4 123 -14q-4 -16 -4 -25q0 -2 1 -4t1 -4l19 -4 q16 -18 16 -45q0 -33 -20 -63l-9 4q-51 16 -120.5 22t-114.5 6q-16 0 -32.5 -1t-33.5 -1q76 -8 153 -12t148 -33q-18 -23 -34 -22q-25 4 -42.5 6t-39.5 4l-15 22q-10 -2 -21 -3t-22 -1q-41 0 -78.5 7.5t-76.5 7.5q-31 0 -68 -11q2 -2 2 -6v-4q16 0 32.5 1t33.5 1q49 0 97 -4 t97 -10q-68 6 -137 6q-68 0 -135.5 -3t-138.5 -3h-25q-16 10 -29.5 13t-24 7t-15.5 14.5t-5 37.5q0 10 4 17t15 7l12 21q-23 12 -34 33.5t-11 43.5zM500 713q4 -2 10 -4q-4 2 -10 4z" />
<glyph unicode="." horiz-adv-x="704" d="M102 115q0 10 2 12l66 66q0 -8 10 -13.5t17 -5.5q10 31 30.5 49.5t43 33.5t43 33.5t30.5 49.5q-2 2 -2 4q-4 4 -6 4l-154 -143q14 16 47 55t68 80t64.5 71.5t37.5 30.5l2 -2q16 -6 46 -11t45 -5q14 0 32 6q0 -12 12.5 -28.5t27 -33t26.5 -31.5t12 -24q0 -14 -10 -14h-6 q0 -18 3 -64.5t3 -105.5q0 -33 -20.5 -57.5t-47 -43t-54.5 -30.5l-42 -18q-12 0 -10 -13.5t-8 -13.5h-11q-6 0 -18 5t-27 13q2 6 21.5 32t42 55.5t43 55t26.5 31.5q-10 -6 -32.5 -29.5t-46 -51t-45 -51t-27.5 -29.5q-27 14 -37 14l-10 -8q-23 0 -48.5 9t-47 21.5t-37 24.5 t-15.5 18v9q51 31 94.5 80t90.5 96q-29 -18 -52 -41l-43 -43q-23 -23 -48 -44.5t-60 -37.5q-10 10 -15.5 16t-5.5 17z" />
<glyph unicode="/" horiz-adv-x="1011" d="M102 -72q0 68 7.5 130.5t23.5 127.5l27 4q12 88 44 171t70.5 162t80.5 157t77 160l-12 4q-82 -156 -160 -312q-72 -147 -117 -311q29 123 78 240q53 125 114.5 245.5t129 238.5t129.5 237q29 53 60.5 101t54.5 101q12 -6 35.5 -13t23.5 -23q0 -12 -7 -28.5t-13 -29.5 l20 -10q16 25 43.5 55.5t60.5 30.5q20 0 28.5 -15.5t8.5 -31.5q0 -72 -42 -171t-106.5 -214t-138 -240t-138 -246.5t-106.5 -234.5t-42 -205q0 -10 1 -26.5t1 -38.5q0 -33 -6 -63t-29 -32l-8 15q2 68 6 135q4 63 14 125q-29 -135 -28 -273h-35l4 -45q-4 -16 -14.5 -35.5 t-30.5 -19.5q-23 0 -40 18.5t-28 34.5q0 221 52.5 413t150.5 388q-98 -180 -152.5 -374.5t-66.5 -399.5q-25 45 -25 98zM139 205l4 16z" />
<glyph unicode="0" horiz-adv-x="1159" d="M102 588q0 135 38 262t116 237q2 -12 10 -15t15.5 -5t13.5 -5t6 -13q0 -6 -8 -25.5t-18.5 -43.5t-19.5 -44.5t-11 -26.5l18 -6q8 14 21.5 34.5t31 39t37 31t37.5 12.5q27 0 33 -10.5t6 -32.5q0 -25 -11 -71t-25.5 -104.5t-26 -122t-11.5 -120.5q0 -18 2 -60t7.5 -93.5 t14.5 -105.5t23.5 -99t36 -74t49.5 -29q55 0 100.5 36t82.5 92.5t63.5 128t45 142t27.5 134t9 104.5q0 76 -8 134.5t-33.5 101.5t-75 70.5t-129.5 39.5q-8 2 -37.5 6.5t-61.5 11.5t-57.5 16t-25.5 20q0 6 4 14q31 0 72 -4t85 -13.5t85 -21.5q27 -8 51 -18q-23 10 -47 18 q-41 14 -84 24.5t-83 15.5t-73 5l-8 37h-10q-35 0 -67.5 -12.5t-67.5 -12.5q-8 0 -16.5 5.5t-8.5 15.5q0 14 10.5 31.5t23.5 32t29.5 26.5t28.5 18q135 0 260 -23.5t220.5 -84t151.5 -162.5t56 -260q0 -152 -32 -303q-31 -141 -99 -266q68 119 101 247q37 141 37 289 q0 127 -25 218t-79 155.5t-139 106.5t-206 71q-47 10 -93 20.5t-97 10.5q49 14 106 14q80 0 163 -20.5t155.5 -60.5t130 -100.5t84.5 -139.5l-25 -7q29 -59 41 -122.5t12 -128.5q0 -80 -13 -175.5t-42 -191.5t-74 -186.5t-107.5 -159t-143.5 -110.5t-181 -42q-10 0 -22.5 1 t-22.5 3l6 -12q12 -2 25.5 -3t25.5 -1q100 0 181.5 42t143.5 111.5t107.5 158.5t74 186.5t43 194t14.5 177.5q0 102 -25 201q14 -53 23.5 -107.5t9.5 -107.5q0 -88 -14.5 -186.5t-44 -193.5t-77 -183t-113 -154.5t-151.5 -106.5t-192 -40q-82 0 -141.5 37t-99.5 97 t-64.5 137t-36.5 158t-16.5 157.5t-4.5 136.5zM786 391q34 84 54 170q23 90 30 176q2 10 3 21.5t1 21.5q0 53 -18 102.5t-41 94.5q43 -109 43 -227q0 -92 -20 -185q-20 -90 -52 -174z" />
<glyph unicode="1" horiz-adv-x="905" d="M20 846q0 51 53.5 101t137.5 104.5t186.5 117t200.5 140.5l180 -74q10 -27 16.5 -70t6.5 -71v-52q0 -45 -1 -88t-12 -88q-12 -63 -20 -153t-14 -189.5t-11.5 -197t-13.5 -175t-20.5 -126t-30.5 -48.5q-4 0 -12 5q10 41 20 86t10 86v49q-6 -53 -14 -107q-8 -55 -23 -108 q-8 4 -20 4q-16 0 -21.5 -14.5t-10.5 -32t-13 -31.5t-29 -14q-27 0 -38 24.5t-21 44.5q20 86 34.5 190.5t18.5 192.5q-4 -37 -8 -84t-11.5 -95t-16.5 -93t-23 -80q-10 23 -11.5 48.5t-1.5 49.5q0 31 4.5 73t9.5 86t10 87t7 74l17 18q0 6 -1.5 10.5t-1.5 8.5q0 6 1.5 13 t1.5 19q0 63 7 132t16 137.5t16.5 136.5t7.5 133l-21 -16q-10 -98 -20 -205q-8 -100 -15 -197l4 191q2 43 11.5 101t13.5 104q-16 -10 -46 -29t-68 -43.5t-77.5 -50t-73.5 -48t-58.5 -41t-30.5 -26.5q-8 16 -27.5 21.5t-21.5 23.5q6 16 18 31.5t25 27.5l-13 13 q-12 -6 -30.5 -17.5t-38 -20.5t-39 -16.5t-33.5 -7.5q-20 8 -21 25zM565 442q8 59 11.5 116.5t5.5 113t4 108.5q0 33 4 66q-12 -90 -17 -180q-4 -111 -8 -224zM702 387q10 102 17 203q6 98 18 196q-22 -104 -26 -200t-9 -199z" />
<glyph unicode="2" horiz-adv-x="931" d="M20 147l48 25q80 53 156.5 109.5t143 123t121 143.5t89.5 171l-7 12q25 49 35 91t10 85q0 72 -32.5 96.5t-83.5 24.5q-70 0 -121 -38t-86 -89q-10 16 -29.5 21.5t-19.5 21.5q0 23 23.5 45.5t37.5 34.5l-12 18q-8 -6 -32.5 -21t-51.5 -32.5t-50.5 -31t-31.5 -13.5 q-25 0 -25 27q0 55 39 107t95.5 92t122 65t120.5 25q82 0 152.5 -18.5t124 -59.5t84 -105.5t30.5 -154.5q0 -113 -44 -225.5t-115.5 -213t-162.5 -185.5t-186 -142q20 2 50 4t63 4t62.5 3t50.5 1q29 0 61.5 -7t55.5 -26l-5 -12q-59 6 -116 6q-27 0 -63 -1t-72.5 -3t-72.5 -4 t-63 -4v-2q20 0 52 1t66 2t64.5 2t53.5 1q37 0 72.5 -3t72.5 -7q-6 -10 -6 -17q0 -16 21.5 -20t47 -9.5t47 -13.5t21.5 -28q0 -12 -10 -22.5t-23.5 -19t-29.5 -14.5l-25 -10q-18 8 -42.5 13t-52.5 7.5t-54.5 3.5t-46.5 1q-96 0 -191.5 -5.5t-191.5 -9.5q23 -2 43 -2h45 q59 0 118.5 2t118.5 2q53 0 105.5 -4t105.5 -14q-31 -10 -95 -15.5t-135 -8.5t-136.5 -4t-102.5 -1l-16 23q-4 0 -7 -1t-7 -1q-8 0 -16.5 1t-18.5 1h-15q-6 0 -12 -4q-18 0 -35.5 2t-36.5 2zM37 117h6l49 24l-2 6q-12 -10 -26.5 -14t-26.5 -10v-6zM61 -68q4 0 22.5 -1t39 -3 t38 -5t21.5 -5l-119 8zM78 193q53 33 119.5 89t133 124.5t126 146.5t100.5 156q-31 -68 -85 -146t-120.5 -150.5t-138.5 -131.5t-135 -88zM109 160l10 -2q86 53 158.5 120.5t140.5 139.5q-72 -72 -147.5 -137.5t-161.5 -120.5zM303 162q16 8 43 20q39 18 78 64z" />
<glyph unicode="3" horiz-adv-x="987" d="M0 20q0 16 14.5 23.5t28.5 7.5t28.5 -1t28.5 -1q43 -31 96.5 -42t106.5 -11q37 0 103.5 11t130 35t110.5 60.5t47 85.5q0 37 -25.5 76t-61.5 76t-75 68q-35 27 -59 49q23 -23 57 -51q39 -31 73 -68t58.5 -77t24.5 -77q0 -47 -44 -80.5t-103.5 -55t-121 -32t-95.5 -10.5 q-51 0 -101.5 9.5t-95.5 33.5q12 2 25.5 3t25.5 1q47 0 87 -3t79 -3q43 0 86 8t94 33l33 -8q35 20 66.5 47t31.5 70q0 35 -39 83t-90 95t-103 88t-79 59l16 113q20 10 49 16t60 13.5t57.5 19.5t42.5 37l-12 6q-2 -6 -29.5 -15.5t-62.5 -20.5t-66.5 -21.5t-44.5 -16.5l2 -4 q0 -4 -6 -4l-2 2l-18 -139q31 -29 84 -69t105 -83t91 -87t39 -79q0 -14 -10 -27t-25.5 -24.5t-31.5 -21.5q-12 -8 -23 -13q8 4 21 13q16 10 30.5 21.5t24.5 24.5t10 25q0 39 -42 84t-96 88t-107.5 81t-75.5 63q6 39 6 57.5t2 50.5q6 2 6 21v24q57 25 106.5 39.5t90 36 t74.5 58t65 106.5q0 61 -57.5 97t-149.5 36q-29 0 -60.5 -8t-64.5 -19.5t-64.5 -23.5t-58.5 -21q-2 14 -11 25.5t-9 26.5q0 12 14 21t33.5 15.5t38 10.5t26.5 6l-6 24q-12 -4 -46 -7t-69 -3t-63.5 7.5t-28.5 27.5q0 29 53.5 54.5t121 45t131 30.5t83.5 11q72 0 150 -25.5 t142.5 -72.5t105.5 -111.5t41 -144.5v-8q-2 -59 -34 -109.5t-77 -91.5t-97 -71.5t-93 -49.5q55 -29 102 -70.5t81 -91t53.5 -103.5t19.5 -107q0 -117 -62.5 -191t-156 -116t-201 -58t-199.5 -16q-12 0 -44 3t-65.5 10t-59 19.5t-25.5 30.5l4 10q109 -39 227 -39 q76 0 149.5 15.5t145.5 42.5q-70 -23 -142.5 -37t-146.5 -14q-119 0 -221 39l14 22q-12 6 -28.5 17.5t-32 25.5t-25.5 28.5t-10 30.5zM653 -59q2 2 4 2q-2 -2 -4 -2zM664 -53q71 41 118 94q51 59 52 158q0 76 -37 139q-37 61 -88 113q53 -57 84 -129q33 -72 32 -156 q0 -35 -17 -69t-43 -63.5t-56 -53.5q-25 -20 -45 -33z" />
<glyph unicode="4" horiz-adv-x="1075" d="M92 461q0 57 16.5 112.5t16.5 108.5q0 70 9 134.5t21.5 126t26 122.5t23.5 127l45 2q14 -4 19 -16.5t5 -24.5l-2 -29h19q4 12 12 29.5t18.5 34t23.5 28t30 11.5q18 0 28.5 -18.5t14.5 -42t5 -47t1 -36.5q0 -55 -7 -110t-16.5 -110.5t-16.5 -111t-7 -112.5 q-16 -29 -19.5 -68t-3.5 -71q8 -4 39 -4q18 0 37 1t27 1l12 -6q53 0 106.5 -3.5t106.5 -7.5q2 12 7 57.5t14.5 92.5t20.5 85t26 38q6 0 14 -4l-14 -103q12 53 26 103l31 -7q0 18 13.5 29.5t29.5 11.5q20 0 39.5 -10t34.5 -24q-12 -20 -22.5 -61.5t-19 -86.5t-14.5 -88 t-10 -68l8 -2q10 66 25.5 149t44.5 144q4 -12 11 -23.5t7 -25.5q0 -29 -10 -64.5t-14 -64.5l-25 6q0 -12 -2 -32.5t-4 -44t-5 -44t-3 -32.5l12 -9q0 10 3 29t6 39.5t8 38.5q2 14 4 27q-4 -33 -9 -68q-2 -37 -2 -70h41q12 -8 25.5 -20t13.5 -29q0 -23 -17.5 -37t-33.5 -30 q-4 2 -15.5 3t-24.5 3t-25.5 3t-16.5 1v-19l64 -4q-12 -10 -21.5 -42.5t-13.5 -70.5t-7 -75t-3 -51l-5 -74q-29 -47 -36 -98q-8 4 -20.5 5t-24 3t-19.5 7t-8 20q0 8 4 20l-18 6q-12 -20 -33 -34.5t-45 -14.5q-35 0 -44 25.5t-9 54.5q0 53 13 107.5t13 107.5l-2 86l-12 2 l-10 22q-39 -4 -87.5 -8t-99.5 -4q-57 0 -112.5 8.5t-99.5 31t-71.5 61t-27.5 102.5q0 45 8 90t12 90h-12q-6 -43 -16.5 -87t-10.5 -87q0 -37 15.5 -68.5t15.5 -60.5l13 -6q37 -27 61.5 -42t44.5 -23.5t39.5 -11.5t44.5 -3q18 0 43 1t59 1l17 -14q-55 0 -120 4t-119 24.5 t-91 64.5t-37 122zM195 348q20 -18 38 -22t43 -11q-27 10 -43 13.5t-38 19.5zM309 313q23 -4 45.5 -5t44.5 -1h45l7 -6l196 -4v4q-49 0 -98 6t-98 6h-142zM338 463q35 -8 68.5 -9t68.5 -5q-31 8 -66.5 11t-68.5 3h-2zM473 258h29q23 0 42 -1t40 -3l-99 -6zM475 449 q16 -8 49 -10.5t70 -2.5h57q29 0 47 2zM723 477h2q6 16 6 29v18zM860 137q0 2 4 2t4 -2h4q0 6 3.5 23.5t7.5 36t8 36t4 23.5l-18 -6q0 -6 -3.5 -21.5t-6.5 -32t-5 -33t-2 -24.5v-2z" />
<glyph unicode="5" horiz-adv-x="1148" d="M41 41q0 16 18 25q45 -78 127 -119q82 -39 170 -43q-86 6 -161 45q-78 41 -117 121l24 8q-10 14 -18 29.5t-12 31.5q2 16 10 38t31 22q41 0 58 -26t41 -55.5t64.5 -55t131.5 -25.5q57 0 125.5 22.5t129 62.5t101.5 94t45 120q-10 -63 -49 -115.5t-95.5 -90.5t-121 -58.5 t-123.5 -20.5q-29 0 -62.5 3t-65.5 14.5t-56.5 31t-34.5 52.5q29 -6 51 -16.5t44.5 -20t47.5 -16.5t59 -7h31q14 0 31 4v-18q55 12 111.5 37.5t103.5 63.5t76.5 88t29.5 114q0 47 -22.5 90t-63.5 66l-6 -13q33 -16 54.5 -53t21.5 -74q0 -104 -59 -172q-49 -57 -125 -92 q25 12 47 27q37 25 64.5 57.5t45 71.5t17.5 82q0 74 -47 116.5t-114 67.5t-140.5 34t-128.5 15q-39 4 -71 9t-54.5 19.5t-34.5 41t-12 74.5q0 33 7 87t18.5 110t23.5 109.5t24 86.5q6 -10 16.5 -10.5t21 -1.5t17.5 -5t7 -22q0 -20 -6 -40t-13 -38l19 -6q10 18 19.5 35.5 t21.5 33.5q-8 14 -8 29q0 23 13 40.5t15 39.5l27 -14l43 8q43 0 85 2t87 6q-23 0 -50.5 -1t-53.5 -1h-70q-20 -4 -29 -4q-25 0 -33 16l13 25q45 0 63.5 2t34.5 4l6 -25q35 10 71 12.5t70.5 2.5t70.5 2t71 14v12q-139 -18 -277 -18q115 10 230 27q117 16 237 16 q33 -25 80 -25l-2 -10q0 -8 1 -15t1 -18q0 -14 -5 -22t-26 -8v-19q20 -12 34 -33.5t14 -46.5q0 -23 -21.5 -36t-54.5 -21t-73 -10t-79 -2q-37 0 -67.5 1t-49.5 1q-51 0 -105 -2t-108 -2q-35 0 -49 -20.5t-19 -51.5t-6 -65.5t-5 -61.5q25 -18 80 -23.5t121.5 -13.5t137 -26.5 t129 -60.5t96.5 -115.5t38 -192.5q0 -115 -52.5 -211t-136.5 -164.5t-190.5 -106.5t-212.5 -38q-37 0 -100.5 9t-126 30.5t-107.5 55.5t-45 83zM354 1055l80 -11l10 11h-90zM465 -88q135 16 251.5 76.5t194.5 175.5q-80 -104 -196.5 -169t-249.5 -83zM565 125q2 0 4 2 q-2 -2 -4 -2zM573 127q6 4 13 6q-7 -2 -13 -6zM575 1065q12 -6 58 -6q33 0 65 2q18 0 31 2h-20q-23 2 -52 2h-82z" />
<glyph unicode="6" horiz-adv-x="1167" d="M102 463q0 129 50.5 251t132.5 229.5t187.5 194.5t215.5 146q16 -14 20.5 -26.5t4.5 -22.5t-12.5 -23.5t-30 -25.5t-33.5 -22.5t-23 -14.5l13 -19q35 18 71.5 31t75.5 13q8 0 28.5 -6.5t20.5 -20.5q-59 -45 -125.5 -103.5t-126 -116t-104.5 -108.5q-41 -47 -55 -76 q16 16 44.5 22.5t51.5 14.5q78 -27 157.5 -57.5t150.5 -75.5t127 -105.5t87 -146.5l6 -16l2 39q-29 78 -81 134t-118.5 99t-141 74t-146.5 55l33 2q70 0 141.5 -30.5t137 -77.5t119.5 -107.5t85 -117.5l-14 -56l-9 -33q4 -18 6.5 -37.5t2.5 -37.5q0 -102 -66 -181l4 -4 q35 35 51.5 86.5t16.5 100.5q0 20 -1 37.5t-5 35.5q10 10 14 32t6 38q16 -35 24.5 -71.5t8.5 -73.5q0 -90 -37 -159t-96.5 -115t-137 -69.5t-157.5 -23.5q-123 0 -228.5 40t-182.5 111.5t-121 172t-44 221.5zM158 229q33 -80 88 -137t126.5 -94t153.5 -54.5t166 -17.5 q88 0 162 29t139 88l6 18q-25 -31 -59 -51q-37 -23 -78 -39t-83 -24t-81 -8q-84 0 -165.5 18t-152.5 55t-127 94.5t-89 135.5zM354 451q0 -66 29 -118t76 -91t107.5 -59.5t123.5 -20.5q27 0 58.5 6t58.5 21.5t44 39t17 58.5q0 55 -25.5 95t-65.5 68.5t-85 49t-85 38 t-65.5 32t-25.5 32.5q0 4 4 12q100 -29 195 -79q94 -49 157 -129q-59 82 -151 133t-189 82q6 8 7 18q0 14 -19.5 21.5t-44 15.5t-46 19.5t-23.5 35.5q-27 -57 -39.5 -138t-12.5 -142zM522 -6q72 -29 158 -29t164 30t137 91l-8 6q-63 -66 -136 -93.5t-163 -27.5q-39 0 -78 6 q-37 4 -74 17zM686 123l23 -2q104 0 172 74l43 67l-11 31q-2 -47 -22.5 -80t-52 -53.5t-71.5 -28.5t-81 -8z" />
<glyph unicode="7" horiz-adv-x="1173" d="M41 1053q0 18 27.5 29.5t71.5 17.5t101.5 9t116.5 3q61 0 127 -2t146 -5t179 -7t226 -8q20 -29 40 -65t36 -69.5t26.5 -59.5t14.5 -34q-96 -96 -192.5 -190t-188.5 -191.5t-175 -199t-151 -211.5q-25 -41 -41 -88.5t-28 -89.5t-24.5 -69.5t-28.5 -27.5q-4 0 -13 4 q41 178 131 342q-47 -78 -83.5 -161.5t-59.5 -174.5l-25 7q-6 0 -11 -17.5t-12 -39t-18.5 -39t-29.5 -17.5q-25 0 -34 26.5t-24 67.5l13 31q31 104 73.5 206.5t102.5 200.5q-59 -92 -109.5 -191t-85.5 -210q0 57 15.5 118.5t41 121t59.5 118t71 111.5l28 4 q45 80 101.5 153.5t118 140.5t125 128t122.5 119q-6 0 -12 1t-12 1l-129 -137q-84 -88 -168 -183q-70 -76 -133 -161q90 125 188 235q115 125 229 246q-80 4 -173 7t-238 3q-70 14 -135.5 19.5t-135.5 5.5q4 4 4 12q0 10 -3 18.5t-3 18.5t13.5 18t54.5 8q10 0 20.5 -1 t24.5 -1v19q-80 14 -126 35.5t-46 44.5zM342 328l8 12zM350 340q8 12 17 25q-9 -13 -17 -25zM457 406l2 2q72 86 155.5 178t159.5 174q-84 -84 -164 -171t-153 -183zM489 211q116 166 261 301q-49 -37 -86 -74t-66 -73.5t-55.5 -74.5t-53.5 -79zM971 1030q10 -33 17 -67.5 t13 -69.5l3 125l-11 24z" />
<glyph unicode="8" horiz-adv-x="1263" d="M41 199q0 86 40 162.5t102.5 140t137 114t144.5 82.5q-55 59 -102.5 135t-47.5 166q0 53 23.5 98.5t60.5 81t84 62.5t95 43q6 -10 17 -19.5t13 -19.5q0 -10 -27.5 -24.5t-59.5 -37t-59.5 -55t-27.5 -81.5v-13l19 2q0 31 21.5 58.5t51 50t60 36t49.5 13.5q25 0 51.5 -10 t42.5 -29q-18 -6 -50 -18.5t-61.5 -28.5t-52 -38.5t-22.5 -49.5q0 -18 21.5 -51t50 -68t59.5 -64.5t47 -41.5q23 10 66.5 34.5t88 57.5t77 67.5t32.5 65.5q0 14 -8 23.5t-19.5 16.5t-21.5 16t-14 22l8 10q14 -6 30.5 -13.5t31 -17.5t23.5 -23.5t9 -29.5q0 -27 -18.5 -50.5 t-32.5 -39.5q18 16 38.5 40.5t20.5 53.5q0 18 -11 33.5t-28.5 30t-37 24.5t-33.5 17l-9 20q-12 4 -37.5 13.5t-50 21.5t-44 24.5t-19.5 24.5q0 20 27.5 27.5t41.5 9.5q8 2 17 2h16q51 0 106.5 -18.5t100.5 -52.5t74 -81t29 -102q0 -57 -29 -105.5t-72 -88.5t-94 -72.5 t-96 -57.5l4 -4q47 27 100 58.5t97 71.5t74 88.5t30 109.5q0 49 -19.5 89t-50.5 71.5t-70.5 55.5t-80.5 38q51 -4 97 -21.5t81 -50.5t56.5 -78t21.5 -100q0 -61 -29 -114.5t-72 -98.5t-95 -81t-101 -64q51 -39 102 -84t92 -98.5t66.5 -116t25.5 -131.5q0 -72 -30.5 -132.5 t-81.5 -111.5t-116.5 -91t-133.5 -66.5t-133.5 -41t-118.5 -14.5q-92 0 -190.5 27.5t-179.5 81t-134 131t-53 178.5zM113 264q6 70 38.5 128.5t86 107.5t121 88t143.5 71l-8 13q-72 -35 -139.5 -74t-120 -87t-85 -109.5t-36.5 -137.5zM264 233q0 -57 25 -108q20 -41 53 -72 q-33 31 -51 72q-23 53 -23 108q0 70 35 123.5t87 93t113.5 71.5t112.5 61q-55 -25 -117.5 -55.5t-114.5 -71.5t-86 -95.5t-34 -126.5zM297 227q0 -59 24.5 -101t63.5 -67.5t87 -37t95 -11.5q78 0 154 25.5t135 73.5l2 10q-61 -43 -135 -66.5t-150 -23.5q-45 0 -91 10 t-84 34.5t-61.5 63.5t-23.5 96q0 47 22.5 85t58.5 68t78 52.5t83 40.5q-41 -20 -82 -42.5t-76 -51.5t-56.5 -64.5t-21.5 -84.5q0 -57 23 -95.5t59.5 -62t82.5 -32.5t91 -9q16 0 31 1t31 3q31 4 86 22.5t108.5 47t92.5 65.5t39 78q0 59 -37 106.5t-88.5 84t-102.5 66.5 t-82 58q-49 -27 -110.5 -58.5t-116.5 -72.5t-92 -93t-37 -118zM342 53l10 -8zM354 45q2 -2 6 -4q-2 2 -6 4zM748 774l12 -8q29 16 61.5 37.5t55.5 42.5z" />
<glyph unicode="9" horiz-adv-x="1226" d="M61 995q0 82 34 141.5t89.5 97.5t126 55.5t144.5 17.5q156 0 280.5 -51.5t210.5 -144.5t132 -223t46 -290q0 -94 -25.5 -171t-70.5 -141.5t-106.5 -119.5t-133.5 -105q-20 -14 -67 -46.5t-100.5 -66.5t-101.5 -60.5t-68 -28.5l-13 12q113 76 228.5 147.5t214.5 165.5 q-100 -92 -216 -161.5t-233 -139.5l-12 31q-10 -8 -27.5 -19.5t-37 -20.5t-39 -15t-31.5 -6q-29 -1 -29 26q0 43 51 84t127 86t166 97.5t166 117t127 143t51 177.5q0 92 -35 182t-90 162q53 -76 85 -166t32 -182q0 -72 -31 -133.5t-81 -116t-114.5 -100.5t-132 -86 t-132 -74.5t-117.5 -63.5q47 55 102 94t112.5 75t115 74t108.5 87l29 -4q45 51 78.5 113.5t33.5 132.5q0 86 -21.5 177t-66.5 164.5t-114.5 122t-163.5 48.5v-13q88 -12 154.5 -57t110.5 -111.5t66.5 -149.5t22.5 -171q0 -61 -27 -117q-20 -43 -51 -82q29 39 49 82 q25 55 25 119q0 100 -31 188t-87 153.5t-136 103.5t-178 38q-61 0 -107.5 -19.5t-46.5 -52.5q0 -57 37 -101t97.5 -74.5t138 -46t157.5 -15.5v-12q0 -10 1 -16.5t1 -12.5q0 -20 -22.5 -24.5t-34.5 -4.5q-18 0 -36.5 2t-37.5 6l-6 -24q12 -4 47 -11.5t73 -18.5t67.5 -25.5 t29.5 -28.5q0 -12 -19.5 -22.5t-44 -16.5t-48 -9t-31.5 -3q-98 0 -207 27.5t-199 84t-148.5 141.5t-58.5 199zM805 373l12 16zM932 233l14 17q-8 -8 -14 -17zM952 258q55 66 88 129q45 86 45 205q0 63 -14 133q4 -29 8 -57q4 -35 4 -70q0 -111 -45 -207q-35 -72 -86 -133z M1069 733v6v-6z" />
<glyph unicode=":" horiz-adv-x="649" d="M102 985q35 57 98.5 93t129.5 36q41 0 78.5 -12t78.5 -12q8 0 15.5 2t13.5 2q18 0 19 -27l-3 -14l-81 8q-41 4 -80 12q39 -14 80 -16t81 -17l-2 -32h11q2 -8 4 -17.5t2 -17.5q-2 -20 -8.5 -40t-8.5 -38q-16 16 -54 22.5t-60 6.5q-23 0 -41 -6h14q35 0 71 -5.5t64 -31.5 q-8 -16 -16 -23q-20 8 -47 12v23q-20 -4 -31 -4q-10 0 -20.5 1t-20.5 1q-16 0 -30.5 -3t-24.5 -14l4 -10l29 8q14 4 28 5q33 0 64 -7q-10 0 -39 -2t-58.5 -7t-52 -13t-22.5 -19q-23 16 -41.5 26.5t-34.5 33.5l6 8l-14 16q-14 0 -31.5 5.5t-33 14.5t-26 22.5t-10.5 29.5z M199 250q0 41 28.5 52t63.5 11q16 0 30.5 -1t26.5 -1q8 0 26.5 -8t39 -17.5t40 -17.5t31.5 -8l21 2q12 -18 12 -41q-33 6 -63.5 14.5t-59.5 24.5q27 -20 59.5 -27.5t61.5 -21.5l-2 -33l8 -2q6 -18 6 -39q0 -32 -14 -71q-41 16 -72.5 26t-74.5 14q39 -12 74.5 -19t68.5 -36 q-6 -12 -21 -22q-10 4 -21 8t-24 6v23q-4 0 -7 -1.5t-7 -1.5q-27 0 -43 9.5t-41 9.5q-20 0 -29 -19q23 0 50 -6q25 -6 49 -10h-62q-27 0 -53.5 2t-48 9.5t-34.5 20.5t-13 36t8 37l6 -2v22q-12 16 -16 36.5t-4 41.5z" />
<glyph unicode=";" horiz-adv-x="643" d="M41 -268l39 73l20 -8q4 25 17 47l24 43q12 20 22.5 43t10.5 47q0 -2 -4 -2q-2 0 -6 5q-6 -39 -27 -72l-35 -60q12 27 27 70q16 47 33.5 95t34 84t26.5 36q16 0 33.5 -3t17.5 -13l-2 -8l23 -3q12 12 31.5 22.5t35.5 10.5q66 0 66 -65q0 -70 -14.5 -124t-39 -103.5 t-56 -96.5t-64.5 -102l-12 -2l-23 6q20 45 43 86t53 80q-35 -35 -59.5 -77t-44.5 -87l-33 10l-4 -12q-16 -4 -24 -4q-47 0 -84 37q10 8 27.5 37.5t35.5 65.5t33.5 68.5t21.5 47.5q-29 -53 -58.5 -107.5t-70.5 -101.5q-14 18 -14 37zM145 901q12 29 33 56.5t46.5 50t55 37 t62.5 14.5q31 0 61.5 -10.5t61.5 -10.5q6 0 18 4q12 -16 17 -36q-10 -2 -19 -2h-18q16 -4 28.5 -13.5t16.5 -29.5l8 2q25 -41 25 -91l-2 -20q-29 10 -57.5 10t-57.5 6l-31 -6q74 0 142 -24q-4 -16 -17 -27l-49 6l-4 21q-18 -6 -31 -7q-10 0 -18 2.5t-23 2.5l-24 -15l4 -10 q27 8 49 8h16q8 0 19 -2q-51 -4 -92 -20l-3 -2l-14 18q-12 4 -35.5 11t-31.5 18l4 4l-19 10q-6 0 -13 -1t-17 -1q-29 0 -60 9t-31 38zM379 1018q10 -4 20 -6l21 -4z" />
<glyph unicode="&#x3c;" horiz-adv-x="1468" d="M102 395q131 139 262.5 260t277.5 211t312 142.5t369 52.5v-14q0 -12 1 -20.5t1 -14.5q0 -10 -9 -15.5t-23.5 -8.5t-29 -4t-24.5 -1h-14l2 -22q12 0 35.5 -5.5t47 -14.5t40 -21.5t16.5 -30.5q0 -23 -42 -41.5t-97.5 -31.5t-107.5 -22.5t-70 -15.5q-123 -39 -230.5 -109.5 t-214.5 -142.5q82 -23 162 -46l160 -46q14 -4 56 -12t86 -19.5t79 -26t35 -28.5q0 -4 -4 -12q-154 41 -307.5 77t-307.5 81l-2 -2q154 -43 305.5 -81t304.5 -85l-10 -33q27 -4 60.5 -17.5t33.5 -46.5q0 -25 -30.5 -38t-48.5 -17q-106 49 -221 84t-233 61.5t-235.5 49 t-232.5 47.5q111 -33 223.5 -59.5t225 -54.5t223 -59.5t219.5 -74.5q-25 -6 -51 -6q-41 0 -81 9t-80 21.5t-79 26.5t-80 25l-18 24q-156 23 -306.5 66t-304.5 82q98 96 198.5 188t207.5 180q-4 0 -4 9q-121 -86 -225.5 -186.5t-204.5 -205.5q158 -37 312 -73.5t310 -77.5 q-160 37 -318.5 73.5t-318.5 71.5zM199 428l8 -2q33 35 63 70q18 18 35 36q-18 -18 -37 -36q-35 -33 -69 -68z" />
<glyph unicode="=" horiz-adv-x="1298" d="M82 545q0 18 10 34.5t23 28.5q88 -4 175 -18.5t175 -14.5h12l125 3q-119 8 -237.5 12t-235.5 33q12 10 25.5 16t29.5 6q39 0 68 -4t67 -6l17 -23q16 2 33 2h34q59 0 121 -5t123 -5q57 0 105 8v13q-41 -2 -79 -3t-77 -1q-66 0 -128 3t-126 11q113 -6 227 -6q115 0 228.5 3 t228.5 3q57 -23 115 -23q-2 -6 -2 -16q0 -8 1 -15.5t1 -15.5q0 -14 -9.5 -20t-21.5 -6l-16 2v-23q25 -10 49 -30.5t24 -49.5q0 -25 -49 -38t-113.5 -19t-128 -7t-92.5 -1q-135 0 -268 21.5t-268 21.5q-10 0 -27.5 -2t-34.5 -2q-23 0 -38 6t-15 24l2 11q104 -4 205 -11 q100 -4 201 -18q-98 18 -199 22q-100 6 -205 17q0 4 1 8t1 8t-1 9.5t-1 9.5h-28q-27 16 -27 47zM150 989q0 25 45 40t108.5 22.5t133 9.5t116.5 2q63 -2 97 -3t79 -5q18 -2 60 -8.5t93.5 -13.5t106.5 -16t100.5 -19.5t75 -21.5t29.5 -22q0 -8 -4 -16q-98 29 -200.5 41 t-205.5 29q49 -10 100.5 -17.5t101.5 -15.5t100.5 -18.5t99.5 -28.5l-8 -33q16 0 27.5 -11.5t11.5 -27.5q0 -23 -15.5 -42t-34.5 -32q-47 23 -104 37.5t-118.5 22.5t-121 11t-110.5 3q53 -4 110.5 -7t115.5 -11.5t112.5 -22.5t101.5 -43q-23 -14 -43 -14q-37 0 -63.5 12 t-61.5 16l-14 23q-78 0 -157 11t-157 11q-51 0 -92 -8l2 -10q96 0 190.5 -4t188.5 -18q-72 8 -145.5 11t-147.5 3q-90 0 -178 -1t-178 -7q-16 6 -36.5 8t-38 6t-30 15.5t-12.5 37.5q0 18 17.5 21.5t29.5 3.5v22q-25 8 -51 27.5t-26 50.5z" />
<glyph unicode="&#x3e;" horiz-adv-x="1388" d="M102 1016q0 18 20.5 28.5t46.5 15.5t52.5 6t38.5 1q86 0 211 -17.5t254 -50t243.5 -79t178.5 -101.5q43 -39 74.5 -85t64.5 -93q-131 -76 -225 -109.5t-177 -53t-167 -40t-191 -67.5q-23 -10 -52.5 -28.5t-61 -38t-61 -35t-50.5 -15.5l-25 22q35 12 68 26.5t62 37.5 q-31 -16 -64 -28.5t-66 -22.5l-10 30l-28 -10q-20 -6 -25 -6q-18 0 -36.5 9.5t-18.5 31.5q0 29 16 46.5t41 27.5q51 20 100.5 44.5t98.5 50.5t99 48.5t103 36.5q-55 -10 -104 -33.5t-98 -49.5t-99.5 -49.5t-105.5 -31.5q66 72 159 114t183 77l6 -21q72 31 148.5 51.5 t154.5 34.5l-20 8q-68 -23 -140 -36q-68 -12 -137 -33q66 23 131 41q68 18 137 30q-29 12 -82 27.5t-117.5 32t-135 32t-136 27.5t-120 19.5t-84.5 7.5q0 4 1 6t1 6q0 16 -4 33q6 16 19 21.5t30 5.5q10 0 20 -1.5t21 -3.5l2 23q-12 2 -36 9t-48.5 17.5t-42 23.5t-17.5 30z M664 610l4 2q-2 0 -4 -2zM668 612q68 14 151.5 34t143.5 42l-9 2zM692 467q78 16 157 30.5t157 43.5q-78 -23 -157 -36t-157 -38zM719 752l153 -58l25 6l-156 58z" />
<glyph unicode="?" horiz-adv-x="942" d="M102 1210q0 43 47.5 79t110 63.5t127 43t100.5 15.5q82 0 146.5 -45t111 -114.5t71 -150.5t24.5 -153q0 -80 -23.5 -131t-62.5 -84t-89.5 -54.5t-101.5 -42t-101 -44t-89 -62.5q0 -12 -11.5 -35.5t-11.5 -43.5q0 -29 14.5 -52.5t14.5 -36.5q0 -23 -12 -34 q-27 23 -38.5 55.5t-11.5 67.5v32q0 14 2 27q-4 -18 -6 -39v-47q0 -29 12.5 -56.5t30.5 -45.5l-22 -25l20 -16q12 -8 24.5 -18.5t22 -22t9.5 -21.5q0 -25 -28 -34t-46 -9l-27 2q-135 106 -135 273q0 41 8 75q8 35 17 72q-8 -16 -15 -37q-6 -20 -10 -44.5t-6 -48.5t-2 -42 q0 -66 25.5 -129.5t76.5 -108.5q-39 12 -66.5 39t-44 62t-24.5 74.5t-8 76.5q0 47 13.5 108.5t39.5 102.5l19 -10q27 63 81 97t115.5 57.5t119.5 49t95 75.5l2 14q0 23 -6 46.5t-16 45.5q0 -6 -8 -6h-2q6 -18 11 -37.5t5 -38.5l-4 -22q-47 -47 -99.5 -66.5t-111.5 -44.5 q49 25 107.5 52.5t97.5 66.5q0 31 -7.5 66.5t-20.5 69.5t-31.5 59.5t-39.5 33.5v-2h-2l-26 -6q-45 -10 -103.5 -22.5t-95.5 -38.5q-4 14 -20.5 24t-16.5 25q0 12 21.5 26.5t31.5 18.5l-10 20q-33 -10 -64.5 -16t-66.5 -6q-12 0 -21.5 7t-9.5 21zM188 670q33 47 78 80t96 55 q-49 -28 -94 -57q-45 -31 -80 -78zM215 -18q23 29 57.5 42t69.5 13q6 -4 19.5 -11.5t27.5 -13.5t26.5 -11t18.5 -5t15 4l8 -23l-2 -18q-23 4 -43.5 11t-38.5 20q18 -16 38.5 -23.5t43.5 -17.5l-2 -35h4l2 -31q0 -18 -4 -38.5t-4 -41.5l-5 2q-8 12 -21 14.5t-24 10.5l-34 6 q27 -10 45 -15t34 -32l-10 -22l-26 12l2 20q-4 -2 -11 -2q-12 0 -21 6.5t-20 6.5q-8 0 -12 -8.5t-4 -14.5l21 4q10 -2 19 -4t19 -6q-6 0 -11 1t-11 1q-27 0 -62 -10l-10 20q-10 16 -16 31.5t-14 32.5l4 4q-6 14 -19 30l-22 31q-10 14 -18.5 28.5t-8.5 31.5zM344 569 q16 18 49 37q37 18 78 33.5t80.5 29t64.5 23.5q-27 -6 -66.5 -18t-79.5 -28.5t-77 -37.5q-33 -18 -49 -39zM559 842q12 6 25 12l16 12q-8 -6 -16 -10q-12 -6 -25 -14z" />
<glyph unicode="@" horiz-adv-x="2162" d="M102 625v24q0 14 2 29l23 12q8 195 81 348.5t184.5 267t249.5 187.5t278 106l26 7q59 14 118.5 18t121.5 6q203 0 360.5 -67.5t266 -179t165 -257t56.5 -299.5q0 -180 -66.5 -336.5t-177.5 -285.5l8 8q6 6 10 6v-2l-4 -12l103 135q70 111 107.5 232.5t37.5 252.5 q0 154 -40 275t-106.5 211t-154.5 154.5t-185.5 103.5t-196.5 57.5t-189 18.5l-107 -9q-53 -4 -104 -14l-54 -10q-162 -41 -298 -119t-240.5 -188.5t-172 -248.5t-91.5 -298q29 215 132 381t252.5 279.5t332 173t368.5 59.5q96 0 191.5 -18.5t182.5 -55.5t165 -93t139 -132 q92 -111 138 -246t46 -277q0 -143 -43 -267t-116 -249q-4 -6 -29 -47t-71 -88t-111.5 -85t-151.5 -38q-80 0 -141.5 42t-96.5 87q-8 10 -27.5 44t-40 75t-35.5 82t-15 64q-16 -49 -57.5 -85t-93.5 -59.5t-109.5 -36t-108.5 -12.5q-47 0 -109.5 15.5t-121 54.5t-102.5 104.5 t-52 165.5q-4 20 -4 33q0 23 3 44t7 42q6 27 28.5 76t60.5 104t90.5 113.5t121 105.5t151.5 77t181 30q57 0 117.5 -22.5t103.5 -76.5q-14 8 -18 8q-6 0 -6 -6q0 -8 2 -12v-12q0 -18 -9 -19q-8 0 -19 10.5t-32.5 21.5t-53.5 21.5t-79 10.5q-45 0 -97 -12.5t-116 -40.5 l10 -21q88 41 168 41q59 0 95 -17.5t54.5 -42t25 -53t6.5 -53.5q0 -6 -2.5 -18.5t-6.5 -25.5t-9 -22.5t-11 -9.5q-10 0 -23 41q-16 45 -30.5 65.5t-61.5 20.5q-53 0 -119.5 -31.5t-126 -83t-101.5 -114.5t-48 -127q0 -61 26.5 -96t108.5 -35q45 0 93 14.5t87 39t63.5 56 t24.5 66.5q0 23 -9 45.5t-9 44.5l233 76q31 -61 56.5 -152.5t52.5 -176.5t58.5 -146.5t72.5 -65.5q33 0 79 50.5t88 127t70.5 168t28.5 172.5q0 133 -48 241t-132 182.5t-196.5 115.5t-239.5 41q-201 0 -359.5 -67.5t-268 -179t-168 -255t-58.5 -295.5q0 -129 44 -247.5 t134 -208.5l10 -11q45 -45 111.5 -77.5t138.5 -54t141.5 -33t124.5 -15.5q76 -6 125 -7t77 -2t38 -4t10 -9q0 -8 -19.5 -12.5t-46 -6.5t-53.5 -2h-39q-129 0 -272 30t-260 95q115 -68 256 -100.5t295 -32.5q59 0 121 6q-10 -10 -10 -18q0 -10 10 -17q80 14 148.5 35 t121.5 40.5t86 32.5t39 13q10 0 10 -10q0 -16 -14 -39q-43 -59 -102.5 -95t-128 -55.5t-141 -26.5t-140.5 -7q-45 0 -107.5 4t-134 14t-146.5 29.5t-145 50.5q125 -59 264.5 -86t278.5 -27q47 0 93 2t94 11q-123 -37 -279 -37q-119 0 -245 27.5t-247 82.5 q-131 59 -221 151.5t-146 199t-81 219t-25 211.5zM147 618q0 -166 45.5 -293.5t122.5 -226.5q-86 115 -125.5 254.5t-39.5 272.5q0 41 7 82t7 75q0 4 -1 7.5t-1 7.5v6q-2 0 -4 -21.5t-4 -52.5l-4 -61q-3 -32 -3 -50zM227 1004q47 102 115 188q72 88 159 158.5t187 122 t207 83.5l27 7q66 16 135 25t139 9q139 0 266 -36q104 -31 193 -86q-94 61 -203 90q-129 37 -258 37q-59 0 -126 -5.5t-128 -23.5l-29 -6q-121 -25 -225 -78t-192 -127t-156 -166q-66 -90 -111 -192zM291 625q0 -172 61 -303q-31 72 -45 149q-14 80 -14 147q0 199 78 353.5 t204.5 260t286.5 160t324 54.5l-8 2q-182 0 -343 -61.5t-282 -171t-191.5 -261t-70.5 -329.5zM483 133q2 -2 6 -2l-2 2h-4zM1655 1475l33 -23z" />
<glyph unicode="A" horiz-adv-x="1585" d="M41 -61q0 39 14.5 99t36 130t48 144.5t50.5 146.5q-23 14 -48 20t-56 10q6 8 6 20.5t2 25t8.5 20.5t22.5 8q4 0 25 -4v19q-33 16 -50.5 38.5t-17.5 45.5q0 49 94 49q27 0 54.5 -3t56.5 -8l94 215q31 70 66.5 144t85 145.5t112 136t143.5 115.5l31 12q57 -14 93 -23 t59 -13q20 -8 33 -11h-3l3 -6q0 -2 -3 -4l25 -43q133 -223 225 -462.5t158 -471.5q16 -51 40 -109.5t45.5 -110.5t35.5 -94t14 -61q0 -14 -6 -17t-16 -3q-53 133 -101 262q-47 127 -92 256q41 -129 86 -256q47 -129 94 -262h-14q-12 0 -16 -12q4 -4 10 -21.5t12 -37 t10.5 -40t4.5 -30.5q0 -45 -27 -45q-14 0 -22.5 6t-18.5 16l-21 21q-12 12 -30 24l-197 565q43 -133 85 -266t87 -262q-33 39 -60.5 94t-51 116.5t-44 126t-40.5 122.5q0 -4 1 -7t1 -8q0 -33 -21 -49l-18 -18l-13 6q-86 23 -182 29t-196 26q98 -20 192 -31.5t186 -41.5 q-29 -18 -61 -19q-39 4 -77 12.5t-81 12.5q0 12 6 18q-59 0 -117.5 12.5t-113.5 27.5t-107.5 28.5t-97.5 13.5q0 -6 -2 -6q53 -10 100.5 -28.5t106.5 -28.5q57 -14 111.5 -20.5t107.5 -16.5q-86 8 -175 24.5t-175 36.5l-96 25q-51 -131 -103.5 -257t-101.5 -255 q-4 8 -13.5 9t-18.5 1t-17 5t-8 22q0 16 8 45.5t30 78.5q-4 4 -13 5.5t-13 1.5q-41 -86 -79 -132.5t-60 -46.5q-25 0 -25 48zM547 662l35 -9q31 -8 60.5 -17t51.5 -20q45 -23 119 -35t144.5 -23t123 -24.5t52.5 -37.5l-250 28q23 -4 55.5 -9t66 -11t66.5 -11.5t55 -9.5 q0 -6 -1 -11t-1 -9t5.5 -5t12.5 -2t13 -5q6 -2 12 -13l-41 109q4 0 12.5 3t12.5 3q-68 170 -134.5 329.5t-146.5 307.5l-12 -12l31 -56q72 -131 129 -270t108 -287q-59 160 -127.5 318.5t-146.5 287.5l-8 -4q-70 -72 -130.5 -172t-113.5 -204zM682 985q4 0 3 -5t1 -5 q4 0 24.5 28.5t47 65.5t51.5 69.5t35 43.5l-10 14q-43 -41 -80 -96.5t-72 -114.5zM797 1276l4 -4l16 -43l-2 43q-4 0 -9 2t-9 2zM840 1202l12 -16l12 12l-10 14zM874 1229l9 -12h2l-11 14v-2zM889 1206q66 -111 121 -231q53 -119 100 -238q-39 119 -94 238q-57 121 -125 231 h-2zM901 1251q27 -6 37 -12t14 -6l2 6q2 0 -8 2t-16 4l4 8l-25 9zM1069 1214q74 -155 133 -315q63 -164 125 -334q-57 166 -121 328q-59 160 -137 321z" />
<glyph unicode="B" horiz-adv-x="1409" d="M20 1247q0 23 41 45.5t105.5 42t142.5 35.5t149.5 28.5t129 18.5t80.5 6q104 0 199.5 -25.5t167 -79.5t113.5 -138t42 -199q0 -47 -14.5 -97t-44 -96.5t-75.5 -83t-110 -53.5q106 -14 183 -49t125.5 -84t71 -110.5t22.5 -131.5q0 -90 -36 -153.5t-95.5 -106.5t-135 -66.5 t-157.5 -35.5t-162 -15t-146 -3q-16 0 -62 2t-95 8t-87 17t-38 30l2 10q86 -14 172 -23.5t172 -9.5q66 0 129 8.5t127 20.5q-115 -20 -240 -20q-88 0 -175 8t-173 22l10 25l-4 14q-6 -2 -18 -2q-20 0 -47 8.5t-50.5 20.5t-40 28.5t-16.5 32.5q0 10 16.5 16.5t38 9.5t42 5 t28.5 4l2 59v64l27 16q-6 35 -8 69t-2 69q0 39 1 76.5t1 78.5q0 43 -4.5 86t-14.5 86h-12q2 -109 7 -213t5 -213q-10 156 -23.5 311.5t-13.5 315.5q0 47 5.5 95t11.5 95l-135 -34l2 6q-4 6 -11.5 22.5t-7.5 20.5q0 10 21.5 21.5t49.5 19.5t53.5 14t35.5 8l-6 25 q-16 -4 -66.5 -9.5t-101.5 -5.5q-41 0 -72 6.5t-31 26.5zM344 121l14 -4q4 72 4 145v146q0 41 -2 79q-2 37 -6 74v-106q2 -55 2 -111q0 -57 -2 -112.5t-10 -110.5zM367 1116h18l14 33l-32 -4q0 -4 1 -7t1 -8q0 -4 -1 -7t-1 -7zM496 90h8v14h-8v-14zM500 139h4v62 q-2 -16 -3 -30.5t-1 -31.5zM504 371q2 33 6 65q4 39 6 80q-8 -39 -10 -78q-2 -33 -2 -67zM514 1161q4 -12 9 -52t10.5 -93t9.5 -114.5t7 -118t5 -100.5t2 -62q0 -109 -8 -216.5t-8 -216.5q0 -41 27.5 -51t60.5 -10q98 0 194.5 7t188.5 42l6 -24q41 20 72.5 49.5t31.5 79.5 q0 55 -34.5 95t-85 64.5t-106.5 36.5t-99 12q-4 0 -16.5 -5t-18.5 -7q29 -2 72 -10t88 -21.5t86 -33.5t67 -45q-39 31 -106 51q-70 20 -142.5 32.5t-134 19.5t-84.5 11l-10 228h4q53 0 111.5 19.5t107.5 55t82 86t33 109.5q0 57 -24.5 94t-64.5 58.5t-89 28.5t-96 7 q-37 0 -74 -3t-74 -3zM543 84q35 -4 66.5 -6t66.5 -2q33 0 81 3t102 11t108.5 22.5t97.5 37t70.5 55.5t27.5 78q0 25 -8 47t-22 43q10 -16 17 -36t7 -40q0 -70 -47 -111t-113.5 -62.5t-138.5 -27.5t-123 -6q-47 0 -95 3t-95 7zM711 707l34 -5q37 23 71 47.5t63 57.5 q-10 0 -11 8q-63 -70 -157 -108zM852 512q61 -10 131 -39q59 -25 107 -57q-45 37 -107 63q-68 33 -129 33h-2zM1028 182l45 29q-18 -18 -45 -29zM1044 -16q53 18 100.5 42.5t84.5 67.5q-39 -41 -86 -65.5t-99 -44.5zM1079 362q33 -27 33 -63v-4q-6 36 -33 67zM1096 250 q0 4 3 11t7 11l-8 -26q-2 0 -2 4zM1108 276l4 9v-2q0 -2 -4 -7zM1165 553q18 -16 35 -33l29 -28q-12 18 -27 32q-14 17 -37 29zM1233 98q33 33 51 82q20 53 21 101v22q0 12 -2 23q0 -66 -13.5 -122.5t-56.5 -105.5z" />
<glyph unicode="C" horiz-adv-x="1220" d="M92 788q0 135 38 275.5t115 255.5t191.5 187.5t268.5 72.5q70 0 132 -22.5t117.5 -59.5t103.5 -84t91 -96l-43 -37q-29 10 -54.5 31.5t-45.5 44.5l-13 -15q27 -31 49.5 -70.5t22.5 -82.5l-23 -37q-27 2 -66.5 31.5t-87.5 63.5t-98.5 62.5t-97.5 28.5q-61 0 -109 -30.5 t-87 -79.5t-67 -112.5t-45 -129t-26.5 -128t-9.5 -109.5q0 -80 25.5 -176.5t76 -179.5t124 -138t167.5 -55q43 0 89.5 9t82.5 32l17 -19q-78 -59 -178 -59q-98 0 -181 47q39 -27 86 -39q51 -14 103 -14q94 0 176 53l18 -27q20 23 51 44.5t64 25.5l31 -35q-4 -51 -40 -89 t-88 -63.5t-110.5 -38t-105.5 -12.5q-139 0 -250 66.5t-188.5 172t-122.5 234.5q-43 125 -50 246q4 -125 48 -252q45 -131 122.5 -237.5t190 -173t254.5 -66.5q78 0 151.5 24.5t137.5 67.5q-47 -72 -125 -102.5t-160 -30.5q-92 0 -170 25.5t-152 81.5l-8 32 q-84 51 -144.5 127t-98 164t-55 184.5t-17.5 192.5q0 102 19.5 203.5t54.5 200.5q-8 0 -9 6q-43 -94 -63.5 -194.5t-20.5 -205.5q0 -199 78 -382t232 -310q-80 61 -140.5 141t-99.5 171.5t-58.5 189.5t-19.5 198zM317 629q10 -119 70 -228q59 -106 156 -172q-96 68 -152 174 q-58 109 -74 226z" />
<glyph unicode="D" horiz-adv-x="1423" d="M123 1276q29 37 54.5 76t49.5 80q74 18 154 34.5t158 16.5q215 0 367.5 -66.5t248.5 -188.5t141 -291t45 -372q0 -328 -180 -486.5t-504 -158.5q-12 0 -38.5 3t-36.5 16q57 8 131.5 19t150.5 27.5t144.5 42t113.5 64.5q-61 -41 -125.5 -64.5t-131 -35.5t-136.5 -18.5 t-139 -14.5l6 23l-6 16q-39 -6 -71 -12t-66 -6q-35 0 -68 8l-2 -60l-45 -4q-16 10 -20.5 47t-4.5 90v50h-18q-2 -12 -9 -57.5t-18.5 -95.5t-27 -89t-33.5 -39q-16 0 -26.5 43t-14.5 99.5t-5 112.5t-1 83q0 141 4 279.5t4 277.5t-22.5 277.5t-22.5 273.5zM387 35 q20 20 46.5 33.5t49.5 29.5q141 0 263 8.5t212.5 53.5t142.5 138t52 263q0 84 -11.5 177t-41 182.5t-80.5 162.5q-47 70 -119 115q70 -47 115 -117q51 -76 78.5 -164t39 -181t11.5 -177q0 -113 -20.5 -187.5t-57.5 -120.5t-91 -70.5t-121 -36t-146.5 -16.5t-169.5 -11 q72 31 154.5 41t159.5 26.5t138.5 56.5t91.5 132l25 8q8 41 10 72.5t2 72.5q0 127 -20.5 255t-75.5 231.5t-153.5 168t-252.5 64.5q-57 0 -113 -7t-112 -19q4 -2 4 -7q0 -6 -2 -6q109 23 209 23q125 0 217 -44t152.5 -121t90.5 -179.5t32 -218.5q-16 119 -45 220t-84.5 175 t-143.5 116t-223 42q-51 0 -102.5 -2.5t-100.5 -18.5q10 -127 18.5 -252t8.5 -252q0 -168 -13.5 -330.5t-23.5 -328.5zM1098 487q2 12 2 25v68v-5q2 -12 2 -28q0 -31 -4 -60zM1098 602q2 -12 2 -22q0 12 -2 22zM1245 956q29 -104 40 -208.5t11 -210.5q0 -53 -6 -109 q-2 -6 -2 -12q12 67 12 139q0 100 -13 202.5t-42 198.5zM1268 322q4 12 6 24q-2 -12 -6 -24z" />
<glyph unicode="E" horiz-adv-x="1177" d="M125 817v43q0 119 6 242t37 260q-12 0 -12 12t13 35t33.5 44.5t46 36.5t50.5 15h487q76 -14 149 -23t152 -14l-2 -47q0 -12 -11 -19t-50 -7q-12 0 -29.5 1t-38.5 3v-19q84 -18 132.5 -44.5t48.5 -51.5q0 -29 -54.5 -35t-144.5 -6q-115 0 -245 1t-251 11h-34 q-10 -78 -14.5 -159.5t-6.5 -167.5q33 0 64.5 3t66.5 3q29 0 67 -5t80 -13.5t84 -19.5t76 -24q6 -2 15 -2h34q27 0 36.5 -8t9.5 -33q-35 0 -66 4.5t-59 8.5q29 -10 59.5 -15.5t65.5 -9.5q-4 -10 -5.5 -18t-1.5 -15q20 -4 27.5 -19t7.5 -34q0 -27 -11 -42t-11 -23 q-80 29 -166 36q-82 10 -168 19q78 -12 160 -23q86 -10 161 -45q-8 -8 -16 -14t-16 -6q-29 0 -55.5 7t-57.5 7v25q-10 -2 -29 -2q-51 0 -100 14t-100 14q-27 0 -52 -6v-8q66 -4 134.5 -13t140.5 -24q-66 10 -140.5 18.5t-140.5 8.5q-27 0 -50 -1t-46 -3q0 -43 2 -100.5 t8 -112t14.5 -95t20.5 -53.5l19 -37q25 -75 159 -75h4q31 0 74 8t87 19.5t84 19.5t69 8t33 -8t4 -23q-86 -10 -166 -31q-70 -18 -135 -28q66 10 133 24q80 18 161 29q-4 -12 -4 -16q0 -12 11 -21l28 4q12 2 24.5 3t22.5 5q37 -10 52.5 -22t15.5 -27q0 -27 -25.5 -37 t-48.5 -32h-8q-59 0 -114.5 -9.5t-110 -19.5t-110.5 -19.5t-116 -9.5h-28h-13q39 -4 84 -4q57 0 107.5 6.5t97.5 14.5t91 14t89 7q-33 -16 -80 -32t-104 -27t-118.5 -18.5t-120.5 -7.5q-41 0 -80 4t-84 27l-2 22q-29 10 -61 38t-58.5 58.5t-45 57.5t-18.5 35l-6 18 q-18 39 -29.5 86t-17.5 95.5t-10 95.5t-6 88q-4 68 -6 136.5t-2 137.5q0 70 1 140.5t1 142.5h-7q-10 -78 -11 -149.5t-1 -143.5v-80q0 -143 15.5 -298.5t78.5 -303.5q-47 80 -59 159t-23 146q-12 88 -17 170t-5 168zM184 664q2 -55 6 -113q5 -58 15 -117q8 -49 19.5 -105.5 t35 -110.5t64.5 -101q33 -39 86 -65q-61 33 -101 89q-45 70 -70.5 156t-37.5 182q-10 96 -17 185zM297 66q12 -12 29 -23q22 -17 45 -31q-27 12 -47 29q-14 12 -27 25zM414 49l18 -8zM645 870q27 -12 62 -18t73 -10q-37 10 -69.5 15t-65.5 13z" />
<glyph unicode="F" horiz-adv-x="1056" d="M123 1235q0 39 3 75t3 76l51 5q23 0 26 -24t3 -38h27q4 27 19 58.5t44 42.5l-2 6l-18 -6q-20 10 -29.5 29.5t-9.5 41.5q0 10 4 20.5t4 20.5q47 0 93 7t93 7q51 0 101.5 -5t101.5 -9q-59 10 -118.5 13.5t-119.5 3.5q-37 0 -72.5 -1.5t-72.5 -3.5q16 27 47 37.5t59 10.5h11 l51 -3l8 -20q16 4 31 4h33q49 0 98 -7t102 -7h25q12 0 26 4l5 10q80 -4 161 -4q31 0 54.5 -12.5t52.5 -12.5v-47q0 -12 -4 -21t-15 -9l-12 2v-19q20 -14 34.5 -36.5t14.5 -47.5q0 -18 -9 -28.5t-23.5 -16.5t-31 -7t-30.5 -1q-129 0 -266 13.5t-273 35.5l-38 -10q2 -8 5 -38 t7 -72t9 -89t9 -87t6 -67.5t2 -29.5h82v-21q37 10 64 11q33 0 63.5 -6.5t67.5 -6.5q16 0 31.5 2.5t31.5 6.5v14q-31 -2 -61.5 -3t-60.5 -1q-20 0 -40 1t-38 3q86 0 169 6t169 6q35 0 63.5 -18.5t28.5 -57.5q0 -10 -4 -18t-15 -8l-12 2v-19q20 -16 32.5 -39.5t12.5 -48.5 q0 -20 -19.5 -32.5t-48 -19.5t-64.5 -9t-67 -2q-90 0 -166.5 15.5t-154.5 15.5q-12 0 -33 -4q6 -68 6 -138q0 -94 -6 -189t-6 -190q0 -14 2 -36.5t2 -44.5q0 -29 -7 -51.5t-34 -22.5v545q-6 -61 -7 -122t-1 -120v-213q0 -43 -4 -90l-31 6v-37q-8 -14 -21.5 -25.5 t-29.5 -11.5q-20 0 -32.5 9.5t-19.5 23.5t-9.5 31.5t-2.5 31.5q0 88 8.5 178.5t8.5 180.5q0 55 -6 110.5t-15 110.5q2 -86 5.5 -169t3.5 -167q0 -72 -4.5 -140.5t-16.5 -137.5q-27 33 -27 69q0 47 3.5 96.5t3.5 96.5h26q-12 68 -14 135l-4 137q-2 70 -6 138.5t-21 136.5 l-12 -7q29 -242 31 -487q-6 197 -29 389q-23 205 -39 412q-4 10 -5 23.5t-1 25.5zM346 1409l6 -8q12 4 44 6t46 4h-49q-33 0 -47 -2zM412 932q35 0 68.5 -3t68.5 -3h18l82 2q-47 6 -95 6h-23.5h-23.5q-48 0 -95 6v-8zM473 1606q106 -4 215 -17q27 -2 51 -4q-68 0 -131 8 q-68 8 -135 13zM492 791q23 -4 45 -7q16 -2 32 -6q-16 4 -30 8q-18 4 -41 5h-6zM569 778h11h-11zM739 1585q4 0 11 -2v2h-11z" />
<glyph unicode="G" horiz-adv-x="1517" d="M82 819q0 152 68.5 280t179 220t251 144.5t283.5 52.5q92 0 177 -25t171 -53q-10 -6 -11 -16.5t-3 -19.5t-7 -15.5t-22 -6.5q-27 0 -52 8.5t-48 18.5l-6 -27q14 -4 37.5 -16t47 -27.5t41 -34t17.5 -34.5q0 -25 -19.5 -30t-37.5 -5q-61 0 -122.5 18.5t-123.5 18.5 q-111 0 -213 -31t-180 -89t-125 -143t-47 -196q0 -113 55.5 -212t142.5 -174t195.5 -118t214.5 -43q8 0 25.5 1t38.5 1q29 0 52 -5t25 -21q-29 -4 -59.5 -9.5t-58.5 -5.5q-84 0 -174 23q96 -29 192 -29q23 0 47.5 2t46.5 6l21 -24q18 4 30.5 5t43.5 13q0 66 6 128.5t6 127.5 v29q0 37 -5 79t-30 66l-12 -6q20 -47 26.5 -100t6.5 -107q0 -88 -13 -170q6 68 6 135q0 14 -3 56.5t-9 86.5t-15.5 78.5t-19.5 34.5q-49 0 -99 8.5t-99 8.5h-11l-55 -2q0 6 -1 14t-1 17q0 16 6 30.5t29 14.5l24 -2v24q-29 8 -58.5 26.5t-29.5 53.5q0 25 27 39t62.5 21.5 t70.5 9.5t53 2q186 0 281.5 -96.5t95.5 -282.5q0 -123 -20.5 -245t-20.5 -245q0 -27 -7 -49t-40 -22l10 147l-18 -141q-6 0 -12.5 -1t-12.5 -1q-4 0 -6 1t-6 1v-31q-16 -31 -49 -31q-16 0 -40 13.5t-24 33.5q0 35 8.5 67t12.5 64l-8 -6l-25 -116q-24 34 -24 66q0 11 4 20 q-39 -18 -79 -30.5t-83 -12.5q-111 0 -208 28.5t-196 71.5l-10 27q-98 41 -181 110.5t-143.5 158.5t-94 191.5t-33.5 208.5q0 92 25.5 180.5t76.5 163.5l-12 7q-49 -76 -79 -162t-30 -178q0 -90 24.5 -181.5t69.5 -175.5t107 -155q61 -68 135 -117q-72 45 -135 110 q-63 70 -109.5 153t-73 174t-26.5 177zM141 741q2 -12 2 -22q-2 10 -2 22zM143 719q6 -31 13 -60q-7 29 -13 60zM156 659q29 -117 96 -210q88 -127 215 -213t280.5 -129.5t309.5 -43.5h12q20 0 39 4.5t33 22.5q-37 -2 -73 -8t-73 -6q-145 0 -288.5 48t-261 135t-201.5 210 q-59 88 -88 190zM371 524q0 -20 26.5 -49t61.5 -56.5t68.5 -51t50.5 -31.5q-18 14 -48 36.5t-61 49.5t-58.5 54t-39.5 52v-4zM1198 217h4q4 47 12.5 91t8.5 91q0 29 -2 55.5t-9 55.5q0 -74 -2 -147.5t-12 -145.5zM1348 227q10 55 16 113q8 60 12 119q-22 -54 -22 -108v-13 v-22q0 -44 -6 -89z" />
<glyph unicode="H" horiz-adv-x="1415" d="M123 1165q10 98 17 170t18 158q20 -2 45.5 -6t25.5 -33l-4 -35h27q4 12 11 29.5t17.5 33t23.5 27t30 11.5q20 0 31.5 -30t17.5 -77t8 -109.5t2 -125.5q0 -35 -1 -68t-1 -63q0 -41 1 -77t3 -65h109l16 -24q29 4 55.5 6t55.5 2q23 0 47 -1t47 -1q39 0 77 4t77 14v13 q-72 -10 -142 -13h-129q100 4 205 15q109 10 217 14q0 119 8.5 237.5t8.5 235.5l-3 43l52 4q8 0 13 -9t9 -20.5t6 -22.5t2 -16q6 6 14.5 18.5t17.5 25t17.5 21.5t12.5 9q35 0 55.5 -12t31.5 -33.5t14 -48.5t3 -53q0 -20 -1 -40t-1 -36v-256q0 -199 -22.5 -396.5 t-22.5 -394.5q0 -14 5 -52t5 -75q0 -29 -6 -48t-22 -19q-14 76 -19 156q0 -78 6 -156l-18 4q-4 -29 -17 -55.5t-44 -36.5q-16 4 -36 13t-30 26q0 72 -3 142.5t-3 141.5q0 111 7 221.5t7 221.5q-16 -176 -16 -351.5t-10 -351.5q-29 41 -34 93.5t-5 101.5l4 102l22 11 q-6 57 -6 118q0 72 6 140.5t13 140.5h-17l-20 -322l10 322q-55 0 -108.5 -10.5t-108.5 -10.5q-104 0 -207.5 4.5t-208.5 8.5q0 -115 -11 -226.5t-11 -224.5q0 -16 3 -41.5t3 -54.5q0 -27 -6.5 -47.5t-22.5 -26.5l-14 4l2 213q-4 -53 -6 -106.5t-2 -106.5q-6 2 -19 2 q-14 0 -18 -2q2 -6 2 -16q0 -49 -49 -62q-18 8 -30.5 14.5t-21 17.5t-12.5 27.5t-4 45.5v35l-10 -68q-16 16 -20.5 34.5t-4.5 39.5q0 51 4 101t4 102l17 10q-6 68 -6 135q0 66 3 133.5t3 134.5q0 47 -2 96.5t-10 96.5h-13q4 -82 5 -164t1 -164v-256q0 205 -11 410t-11 409z M188 573q2 -70 2 -141v-74q6 74 7 150q0 53 -2 104q-2 47 -7 97v-136zM395 711h125q-61 6 -123 6zM397 854h131q-6 0 -12 2q-18 2 -42.5 4t-46 4t-30.5 4v-14zM541 856q23 -4 43 -4h43q31 0 62.5 2t62.5 6h-41q-43 0 -85 -2t-85 -2zM1208 305q4 66 9 135q6 72 14 142 q-13 -70 -19 -142q-4 -68 -4 -135z" />
<glyph unicode="I" horiz-adv-x="559" d="M123 188q0 49 16.5 102.5t20.5 110.5l28 13q0 100 8.5 199.5t8.5 199.5q0 51 -3 100.5t-14 102.5h-12q12 -145 12 -279q0 -68 -4 -129q-4 -57 -14 -116q6 45 8 86q4 47 4 100q0 166 -13 337t-24 351v57q6 25 7.5 53.5t5.5 55.5t15 44t38 17l35 -10l12 -24h18q8 12 19 12 q12 0 24.5 -9.5t28.5 -9.5q31 0 43 -42t16.5 -104.5t4.5 -137t8 -140.5q6 -59 11 -119.5t5 -121.5t-4 -143t-11 -169.5t-17.5 -173.5t-22.5 -153.5t-28.5 -109.5t-33.5 -42q-4 0 -12 4q14 66 27.5 131.5t23.5 137.5q-14 -66 -29.5 -134.5t-33.5 -128.5q-8 8 -21 9 q-4 0 -9 -10.5t-13 -23.5t-20.5 -23.5t-26.5 -10.5t-22.5 6t-13.5 15.5t-10 19.5t-14 18l7 19q43 117 59 253t25 273q0 20 -3 39v31q-6 -152 -24 -303q-16 -156 -70 -287q-8 16 -12 28.5t-4 28.5zM170 483v9v-9zM362 449q8 70 15 126q8 62 12 140q-12 -41 -17 -75t-6 -64.5 t-1 -63.5q0 -29 -3 -63z" />
<glyph unicode="J" horiz-adv-x="948" d="M-41 -25q0 20 24.5 27.5t39.5 7.5h38q49 -25 100.5 -49t108.5 -24q59 0 104.5 34.5t78 89t54 124t36 138t20.5 130.5q2 23 4 41q-2 -16 -4 -35q-8 -59 -22.5 -128t-35 -137.5t-51 -124t-71.5 -90t-96 -34.5q-51 0 -99.5 19.5t-89.5 45.5q47 0 90 -12t91 -12q41 0 64.5 16 t45.5 47l29 -2q45 86 73.5 190.5t45 215t22.5 220t6 206.5v63q0 33 -2 66l-6 -9q-4 -102 -8 -226t-17.5 -249t-41 -241.5t-78.5 -206.5q61 115 87.5 263t36 306t11.5 314.5t14 287.5q-115 12 -234.5 26.5t-234.5 14.5q0 20 -1 30.5t-1 20.5q0 18 28.5 22.5t41.5 4.5h4l47 -2 v25l-42 7t-61.5 15t-55 24.5t-23.5 32.5t37.5 28.5t85 17t90.5 7.5t55 1q111 0 213 -11.5t215 -33.5l100 -144q-14 -74 -20 -181.5t-10 -232t-11.5 -260t-27 -264.5t-55 -245.5t-95 -204.5t-148.5 -140.5t-214 -52.5q-53 0 -113.5 19.5t-99.5 58.5l6 16q53 -27 108.5 -42 t114.5 -15q70 0 137 29q-63 -23 -129 -23q-59 0 -112.5 16.5t-106.5 41.5l14 24q-10 6 -28.5 17.5t-34.5 24.5t-28.5 28.5t-12.5 27.5z" />
<glyph unicode="K" horiz-adv-x="1386" d="M123 -39l18 225h27q-2 20 -3 40t-1 40q0 111 16.5 222.5t16.5 222.5q0 23 -1 45t-3 45h-13q0 -135 -8 -267.5t-25 -267.5q25 307 25 617q0 63 -7 127.5t-7 128.5q0 47 9 90t9 90v22q0 12 -2 23q14 0 25.5 3t19.5 3q20 0 24.5 -21.5t4.5 -37.5v-8h26q2 12 7.5 31.5 t13.5 39t21.5 32.5t29.5 13q20 0 35.5 -38t26 -96t15.5 -129t7 -135.5t3 -115.5t1 -71v-105q109 125 242 250t262 229q49 39 92 73t84 83l45 -47q-10 -23 -25.5 -42.5t-31.5 -35.5l18 -12q12 10 30.5 23.5t39 25.5t41 21.5t37.5 9.5q25 0 24 -25q0 -49 -30.5 -92 t-102.5 -105.5t-189.5 -158t-291.5 -248.5q104 -16 191 -57t157 -102.5t123 -138.5t90 -163q8 -20 26.5 -56t36 -75t31 -75t13.5 -56q0 -10 -6.5 -22.5t-18.5 -16.5q-35 102 -73 200.5t-97 188.5q55 -92 91 -189.5t65 -199.5l-31 -6q4 -10 11 -31.5t7 -30.5q0 -16 -5 -41.5 t-29 -25.5q-23 0 -43.5 16.5t-34.5 32.5q-23 119 -66 229.5t-112 200.5q57 -80 91.5 -181.5t61.5 -223.5q-31 41 -52.5 88t-41 95t-39.5 95t-49 90l18 15q-57 66 -116.5 108.5t-125 69t-139 37t-157.5 10.5l-37 117l-2 -17q8 -20 18 -61t21 -60q70 0 138.5 -6t131.5 -26 q39 -14 76 -33q-27 12 -53 22q-55 18 -117 25.5t-129 7.5q-10 0 -21.5 -1t-21.5 -1l-10 -2q-12 23 -19.5 57.5t-17.5 61.5q-6 -43 -14.5 -114t-17.5 -145.5t-15.5 -143t-6.5 -107.5q0 -10 1 -30.5t1 -43.5q0 -31 -5 -56.5t-25 -25.5q-4 0 -13 4q3 27 3 56q0 14 -1 28v49 l-8 -133l-18 4l-19 -4v-37q-8 -14 -21 -27.5t-32 -13.5q-35 0 -48 32t-13 57v57q2 25 2 49q-6 -27 -10 -55q-6 -33 -11 -68q-10 16 -14 40t-4 42zM162 2q2 2 2 4q-2 -2 -2 -4zM197 336q10 66 14 125q6 63 6 117q-6 -64 -10 -123q-4 -57 -10 -119zM338 221q10 66 16 133 q8 66 19 129q-15 -63 -23 -129t-12 -133zM432 690l146 166l-7 8l-137 -143zM573 487q168 -23 273 -84q-115 78 -273 84zM719 625q135 -37 244.5 -121t187.5 -199q-70 119 -184.5 203t-247.5 117zM807 375q10 -7 20 -13q-10 6 -20 13zM831 360q7 -4 13 -8l6 -4q-10 6 -19 12z M850 348q26 -16 49 -41q-23 23 -47 39zM918 289l8 -8zM926 281q6 -7 10 -13q-4 6 -10 13zM936 268q4 -2 6 -6q-4 2 -6 6z" />
<glyph unicode="L" horiz-adv-x="1187" d="M125 756v231q0 55 1 109.5t3 109.5q2 63 10 124t8 126h9q14 0 24 2t17 2q20 0 24 -26.5t4 -40.5l-2 -43h25q2 12 7 39.5t15.5 56.5t23.5 50.5t32 21.5q20 0 31.5 -37t17.5 -87.5t7 -102.5t1 -83v-24q0 -236 4 -471.5t4 -470.5q0 -18 -1 -38t-1 -38q0 -10 1 -18.5t1 -18.5 h21q18 0 36.5 -1t36.5 -1q129 0 255 13.5t255 13.5h9q20 0 48.5 -5.5t28.5 -29.5v-4q-109 0 -213 -7.5t-213 -17.5q80 4 159 10t159 6q27 0 51.5 -1t50.5 -3l-8 -24q12 -2 32.5 -5t40 -11.5t34 -19.5t14.5 -28q0 -29 -26.5 -40t-49.5 -21q-31 10 -64.5 11t-66.5 1 q-72 0 -141 -6q-66 -6 -133 -12q49 2 94 4q51 2 102 2q45 0 89 -2t89 -10q-37 -16 -91 -24.5t-112.5 -12.5t-115.5 -5t-100 -3l-19 20q-45 -10 -90 -13t-92 -3q-49 0 -98.5 4t-96.5 12q-23 25 -45 48.5t-49 45.5q0 147 -7 290.5t-18 291.5h-13q6 -143 14 -286.5t12 -287.5 v-10l-6 6v15q-10 184 -19.5 363t-9.5 364zM166 0l94 -98q35 -10 73 -13.5t79 -3.5q25 0 47 2h39q-12 -2 -29 -2q-16 -2 -33 -2h-41q-25 0 -50.5 2t-49 4t-33.5 7q-6 6 -20.5 21t-30.5 31.5t-29.5 32t-15.5 19.5zM193 209q0 -47 6 -94t6 -95v-12q16 -16 31.5 -32.5 t29.5 -34.5h15q45 0 89 -5.5t89 -5.5q47 0 92 4q16 0 35 3h-15q-49 -2 -102 -3q-63 0 -118.5 4.5t-78.5 14.5l-61 59l-18 242v-45zM299 96q12 -4 36.5 -15t37.5 -13l-6 22l-23 -2zM397 80q10 -2 21.5 -3t23.5 -1q53 0 106.5 2t106.5 12q-66 -4 -129 -4t-129 -2v-4z" />
<glyph unicode="M" horiz-adv-x="1839" d="M51 121q0 59 27.5 153.5t64.5 195.5t75 197.5t58 161.5q18 57 34 124t27 135.5t19.5 136t14.5 129.5q35 27 95 45t112 39q111 -90 190.5 -207t138.5 -264q37 55 69 122.5t58.5 140.5t51 144.5t49.5 132.5q51 16 107 24.5t112 18.5q55 -115 104 -219t91 -209.5t76 -216 t61 -237.5q12 -66 30.5 -132.5t33.5 -134t26.5 -135t11.5 -135.5q0 -6 -5 -16.5t-22 -12.5q-33 193 -71 381q-39 184 -97 367q51 -182 88 -363q39 -186 68 -378l-29 -17q4 -25 10.5 -51.5t6.5 -50.5q0 -6 -1 -25.5t-4 -40t-10.5 -36t-19.5 -15.5t-25.5 15.5t-25 37t-20.5 41 t-13 29.5q-12 135 -42 302t-71 338t-93 331.5t-109 283.5l-3 -10q66 -139 113 -285.5t82 -297t59.5 -303t42.5 -302.5q-43 94 -68.5 191.5t-45 195t-39 195.5t-47.5 199l14 40q-29 84 -58.5 166t-68.5 160l-8 -20q-23 -61 -57.5 -143.5t-81.5 -160t-105.5 -139t-128.5 -82.5 q-43 27 -87 50.5t-89 48.5v12l82 -45q41 -23 82 -47l16 4q88 51 142.5 102t93.5 112.5t68.5 138.5t68.5 175l-8 19l-8 -19l-35 -80q-20 -49 -50 -105t-66 -114.5t-72.5 -106.5t-75.5 -78t-74 -30l-135 70l-4 6q0 25 -9.5 53.5t-21.5 57t-27.5 56.5t-27.5 52l-15 8 q27 -63 55.5 -114.5t28.5 -108.5l10 -12l-18 8v12q-37 72 -70.5 157t-68.5 157q-20 -137 -51 -274.5t-78 -266.5q-41 -111 -98.5 -212t-96.5 -214l-16 12l-23 -4q-18 4 -18 25q0 16 6 39.5t15.5 48t19.5 48t16 38.5l-18 6q-6 -12 -29.5 -55t-51.5 -88t-54.5 -82t-40.5 -37 q-10 6 -14.5 19.5t-4.5 23.5zM383 1210l23 121l-15 -4l-4 -61q0 -20 -4 -56zM1092 1284l53 127h-8zM1176 1065q20 43 37.5 86t33.5 86l-2 12zM1192 1438l27 -68l10 2l-25 66h-12zM1288 1266l8 -17l2 11l-6 14zM1333 1501l4 -22l43 -56zM1386 1411l23 -63l45 -95l6 4 q-4 12 -14 34t-21.5 44.5t-21.5 44t-17 31.5z" />
<glyph unicode="N" horiz-adv-x="1464" d="M123 1042q0 109 15.5 215.5t49.5 210.5l226 43q10 -14 18 -25t19 -24q59 -86 102 -187t78 -211t66.5 -221.5t70.5 -217t90 -199.5t125 -168q8 59 15.5 157.5t16.5 211t19 226.5t25.5 207t37 151.5t50.5 58.5l12 -8q-43 -127 -58.5 -256t-22.5 -260.5t-16 -261.5t-40 -257 l12 -6q2 18 4 38t6 38q16 119 23.5 238.5t17 240.5t26.5 240t54 233l21 -14q12 8 22.5 38t24.5 61.5t34.5 57t51.5 25.5q16 0 19 -19.5t3 -37.5l-2 -14q-2 -12 -6 -32t-9 -42.5t-13 -40.5q-29 -90 -46.5 -178t-27.5 -177.5t-16.5 -179.5t-12.5 -182q8 84 15.5 176 t19.5 185.5t31.5 182.5t54.5 167q-31 -197 -50 -391.5t-32 -393.5l-24 -12q0 -125 -24.5 -238.5t-55.5 -234.5q-10 0 -23.5 -1t-25.5 -1q-10 0 -28.5 6t-39 15.5t-42 20.5t-36.5 21q-88 57 -157.5 142.5t-125 188t-98.5 216t-80.5 228t-72.5 224t-70 202.5l-12 -11 q35 -102 68.5 -222t71.5 -244t86 -244.5t112.5 -225t150.5 -185.5t201 -126q-98 27 -175 91.5t-139.5 152.5t-110.5 191.5t-87 210t-69.5 208.5t-57.5 186q0 -86 9 -167.5t9 -165.5q0 -141 8.5 -283.5t16.5 -284.5l-45 -8q-16 0 -24.5 27.5t-12.5 62.5t-5 67t-1 40h-25 q0 -16 -1 -64.5t-7 -99.5t-19.5 -92t-37.5 -41q-16 0 -30.5 54t-29 143t-26.5 203t-20.5 230.5t-13.5 227t-5 194.5zM616 483q25 -51 43 -94q29 -59 56.5 -109.5t58.5 -90t76 -75.5t107.5 -70t152.5 -73q23 74 41 148t29 151q-12 -74 -32 -144.5t-38 -141.5 q-123 43 -199.5 94t-129 116.5t-93.5 147.5q-33 63 -72 141zM815 432q33 -76 85 -138.5t110 -117.5h6q-20 14 -52 55t-64 85t-56.5 79t-28.5 37z" />
<glyph unicode="O" horiz-adv-x="1515" d="M82 653q0 59 6 126t26.5 134.5t58.5 132t103 117.5q53 43 116 73t124 34q-6 -4 -6 -8q0 -8 9 -17.5t9 -19.5v-4q0 -8 -9 -12.5t-29.5 -11.5t-53.5 -21.5t-78 -42.5q12 -12 13 -19q39 20 71.5 28.5t61.5 8.5q59 0 85.5 -20.5t26.5 -30.5q0 -16 -25.5 -26.5t-59 -26 t-70.5 -41t-58 -74.5q-33 -49 -50 -123t-17 -150q0 -129 30.5 -235.5t87 -184t137.5 -120.5t183 -43q98 0 177 49t134.5 134t84 196.5t28.5 238.5q0 61 -7 122t-28.5 116t-59.5 104t-99 90q-78 41 -127.5 58.5t-49.5 34.5q0 6 9 13q102 -23 184 -73q76 -47 127 -123 q-55 84 -125 129q-76 51 -180 80q10 10 10 19q0 8 -29.5 14t-64.5 14t-64.5 20.5t-29.5 30.5q0 23 36.5 33t90.5 25q14 0 27 -4t24 -8q100 -18 191 -65.5t164 -121.5t122 -175t63 -228q-10 121 -54 220t-114.5 177t-165 131t-200.5 82q94 0 187 -38t171 -110.5t135.5 -179 t81.5 -243.5q-4 0 -12 -3.5t-12 -3.5q18 -104 18 -202q0 -143 -44 -280.5t-127 -245t-203.5 -174t-276.5 -66.5q-92 0 -180 26.5t-164 71.5q4 -4 4 -8t-10 -4q76 -49 164 -76q90 -29 184 -29q106 0 198.5 33t168 90.5t133.5 132.5q41 53 71 115q-27 -57 -61 -113 q-49 -78 -122 -137t-167 -95t-213 -36h-27q-170 0 -294.5 76t-206.5 193.5t-122 263t-40 286.5zM416 -51q0 -2 2 -4q0 2 -2 4zM1090 207q53 55 86 126.5t47 153.5q-16 -78 -49 -150.5t-84 -129.5zM1098 0q70 49 123 117q53 70 89 151.5t55 172.5t24 182q-3 -7 -3 -17 q-10 -80 -29.5 -165t-53 -166.5t-84.5 -153.5q-51 -70 -121 -121zM1153 1028q2 -4 6 -8q-2 4 -6 8zM1223 487q10 45 15 91.5t5 93.5q0 51 -6 104q2 -23 3 -43t1 -43q0 -105 -18 -203zM1337 219q4 6 6 12q-2 -6 -6 -12zM1346 233q4 11 8 21q-4 -10 -8 -21zM1354 254q2 6 6 14 q-4 -8 -6 -14zM1360 268q23 63 38 127t25 125v-8l-18 -100q-10 -37 -20.5 -73t-24.5 -71zM1423 524q0 35 4 78q4 45 5 98v37q2 -16 2 -35v-34q0 -35 -4 -72q-2 -35 -7 -72z" />
<glyph unicode="P" horiz-adv-x="1409" d="M123 1151q0 92 47 144.5t117.5 79t152.5 32.5t152 6q141 0 277.5 -20.5t243 -80t171 -167t64.5 -279.5q0 -145 -44 -253.5t-124 -180.5t-194 -107.5t-253 -35.5q-6 0 -26.5 1t-43 4t-40 10t-17.5 20l6 14q35 -2 70 -3t70 -1q61 0 121.5 6t118 24.5t106.5 51.5 q45 31 84 78q-41 -47 -88 -78q-51 -33 -109.5 -49.5t-121 -21.5t-126.5 -5q-29 0 -59.5 1t-59.5 3l-2 39q-16 -2 -28.5 -3t-22.5 -1q-25 0 -45 7.5t-49 25.5v-43q0 -35 1 -69t9 -62q-10 -100 -15 -200.5t-5 -201.5l-45 -2q-10 0 -15.5 13.5t-8.5 33t-4 42t-1 40.5v41h-20 q0 -12 -6.5 -53t-15.5 -86t-23.5 -81t-32.5 -36q-14 0 -24.5 27.5t-16.5 62.5t-10.5 67t-4.5 42q-18 180 -18 361t-16 362q-6 61 -18.5 119.5t-26 118t-22.5 118.5t-9 125zM356 1130q78 23 143.5 27t125.5 4h8q88 0 174 -5t153.5 -34.5t109.5 -92t42 -177.5q0 -35 -6 -65.5 t-16 -61.5q8 29 13 58.5t5 60.5q0 78 -26.5 141.5t-86.5 114.5l-14 8q-31 14 -77 22.5t-97 13.5t-103.5 6t-97.5 1h-57q-37 0 -85 -6t-83 -17q0 -51 9 -101t20 -99l22 -99q12 -49 17 -98l18 -256q14 10 31.5 17.5t46.5 7.5h10q45 -14 93 -16.5t95 -2.5q98 0 175 18.5 t130.5 62.5t81 117t27.5 179q0 47 -15.5 103.5t-46 105.5t-77.5 82q-45 33 -105 35q57 -6 103 -37q45 -31 75.5 -78t46 -103.5t15.5 -109.5q0 -186 -90 -274t-277 -88q-45 0 -90 4l-90 8q68 16 138.5 19t135 15.5t117 46.5t84.5 113l19 -6q24 65 24 136v6q0 113 -37.5 180 t-101 104t-149 48.5t-179.5 11.5q-70 0 -147.5 -5.5t-142.5 -27.5zM963 1333q29 -10 56.5 -17t55.5 -20q-51 27 -112 37zM1077 1294q20 -16 39 -26q21 -13 41 -33q-8 16 -37 35q-27 16 -43 24zM1214 1163q43 -68 64.5 -144.5t21.5 -156.5q0 -129 -51 -248q27 57 41 121 q17 67 17 135q0 84 -22.5 155t-70.5 138z" />
<glyph unicode="Q" horiz-adv-x="1538" d="M92 604q0 106 21.5 211t57.5 204t83 194.5t100 187.5q2 -10 10.5 -11t17.5 -2.5t15 -4.5t6 -15q0 -16 -8 -37.5t-18 -44t-21.5 -44t-19.5 -34.5l24 -14q8 14 29 48t47.5 67.5t53 59.5t47.5 26q23 -4 22 -21q0 -61 -32.5 -155.5t-72.5 -202t-73 -218t-33 -208.5 q0 -66 15.5 -124t49 -101t85 -68t123.5 -25q59 0 129.5 20.5t119.5 55.5l-102 125l55 37l39 -37l19 14q-4 10 -6.5 21.5t-2.5 23.5q0 29 11.5 52.5t40.5 23.5q14 0 30.5 -11t31.5 -26.5t27.5 -32t22.5 -26.5q45 55 85 121.5t68 138.5t44 146.5t16 148.5q0 88 -24.5 151.5 t-69.5 108.5t-110.5 74t-145.5 45q-12 2 -48 7t-73 12.5t-66.5 14.5t-29.5 15q0 4 4 12q68 0 144.5 -10t151.5 -34.5t138 -65.5q61 -37 105 -90q-41 57 -103 96q-63 41 -138 66.5t-152.5 37t-145.5 15.5q4 20 4 22q0 4 -4 8q-18 0 -44 -7t-53.5 -18t-53 -22.5t-41.5 -19.5 q-16 10 -17 28q0 39 24.5 67t59.5 46.5t74 27.5t70 9q137 0 270 -38t237.5 -112.5t168 -188.5t63.5 -267q0 -86 -24.5 -179.5t-64.5 -183.5t-91.5 -172t-104.5 -147l4 -2q61 70 112.5 151.5t90.5 169.5t60.5 181.5t21.5 189.5q0 156 -67.5 270.5t-176 191.5t-245 114.5 t-273.5 37.5l-51 -2q78 23 149 23q90 0 189.5 -25.5t189.5 -75t163 -118t112 -154.5l-19 -12q31 -61 45.5 -129t14.5 -137q0 -96 -22.5 -190.5t-62.5 -183.5t-93.5 -170t-116.5 -153l12 -12q111 139 181.5 280.5t105.5 317.5q-20 -168 -98 -320.5t-183 -283.5 q59 -61 112.5 -137t94.5 -159t64.5 -172t23.5 -175q0 -10 -2 -30.5t-8 -42t-16.5 -37t-24.5 -17.5l-21 8q20 35 28.5 73t8.5 79q0 45 -12 92q2 -23 3 -43.5t1 -42.5q0 -41 -7 -79t-28 -73l-30 19q-4 -12 -14.5 -22.5t-24.5 -10.5q-29 0 -47.5 25.5t-20.5 52.5 q20 12 26.5 31.5t6.5 41.5q0 86 -41 170t-92 150q20 -33 42.5 -69t41 -73.5t31 -77.5t12.5 -79q0 -23 -8.5 -47.5t-30.5 -34.5l-15 31q4 10 8.5 22t4.5 25v18q0 6 -2 19l16 16q-25 47 -46.5 97t-47 97.5t-56 91.5t-73.5 79l-6 -13q66 -74 124 -164t78 -188 q-14 51 -39.5 101.5t-57.5 98.5t-67.5 93t-70.5 84q-47 -41 -93 -70t-95.5 -47t-104.5 -26.5t-123 -8.5q-125 0 -220 53.5t-159.5 139.5t-98.5 191.5t-34 209.5zM567 16q10 -2 21 -2h20q39 0 93.5 11.5t110.5 31t109.5 49t92.5 66.5l-10 10q-86 -63 -187.5 -109t-212.5 -46 l-37 2v-13zM1278 915q8 33 15 68t7 74v10l-2 86q-12 -46 -12 -97v-14v-20q0 -50 -8 -107zM1350 74q20 -51 43 -101q20 -47 39 -96q-16 51 -37 98q-20 50 -45 99z" />
<glyph unicode="R" horiz-adv-x="1599" d="M61 1454q0 25 54.5 47.5t138.5 42t184.5 33.5t193.5 25.5t165.5 16.5t101.5 5q147 0 266 -29.5t202 -97t127 -177.5t44 -269q0 -133 -50 -226.5t-134 -152t-192.5 -86t-225.5 -27.5q-33 0 -64.5 2t-64.5 4q23 -14 75 -38.5t116.5 -55.5t135 -64.5t128 -65.5t94.5 -59.5 t37 -43.5l-11 -13q-68 49 -139.5 86t-146 70t-150.5 63q-72 31 -143 72q70 -41 139 -72l145 -65q74 -33 145 -69t136 -85l-27 -24q14 -10 34 -27.5t37.5 -38t29.5 -42t12 -40.5q0 -27 -24 -26q-25 0 -53.5 14t-51.5 22q-16 31 -57 63t-98.5 62.5t-123 59t-129 56.5 t-118.5 52q-39 16 -68 33q59 -35 125 -63q76 -35 152.5 -72t148.5 -78t131 -94q-59 16 -149 54t-183.5 84t-180.5 93t-140 82l14 19q-57 39 -116.5 90t-92.5 112q-23 -96 -26.5 -184t-3.5 -168q0 -29 14 -54.5t14 -47.5q0 -31 -28 -37q-16 39 -25 78q-8 39 -12 78 q0 -41 4 -80q6 -41 20 -82l-30 -13l18 -24q-4 -23 -17.5 -42.5t-39.5 -19.5q-33 0 -52.5 36t-31 86.5t-14.5 102.5t-3 87q0 70 1 137.5t5 136.5q-10 -66 -11 -133t-1 -135q0 -72 8.5 -147.5t24.5 -145.5q-27 25 -40 55.5t-20.5 64.5t-10.5 68.5t-5 67.5l25 6 q-8 31 -10.5 62.5t-2.5 64.5q0 72 10.5 140.5t10.5 140.5v24l-2 52h-12q-4 -98 -11.5 -196.5t-9.5 -199.5q-2 20 -2 39v39q0 150 15.5 294t31.5 292q4 47 24.5 87t33.5 83q8 -6 20 -7t22.5 -2t18.5 -7.5t8 -20.5q0 -8 -2 -16l-4 -17l18 -6q14 23 37 43.5t52 20.5 q23 0 33 -18.5t10 -39.5q0 -12 -3.5 -51t-8.5 -90t-11 -109.5t-11 -109.5t-9.5 -87t-4.5 -44l50 110q-6 -18 -11.5 -30.5t-9.5 -24.5t-11 -26.5t-20 -37.5v-28l68 153q33 0 64.5 1t64.5 8l20 4q-45 0 -70.5 1t-47.5 5q82 0 162.5 3t164.5 3q74 0 146.5 4t131 28.5t95.5 76 t37 145.5q0 96 -24.5 155.5t-70.5 93.5t-116 45t-158 11q-180 0 -362 -16.5t-357 -61.5q-4 16 -6 29.5t-10 23.5q0 12 22.5 22.5t51 17t54.5 10.5t34 6v24q-14 -2 -49 -4t-76 -2q-55 0 -102.5 7.5t-47.5 29.5zM438 594q41 -53 83 -99t95 -87q-49 35 -99 84t-79 102zM455 623 l4 4l51 118v7q-2 -6 -11.5 -24.5t-18.5 -40t-17 -40t-8 -24.5zM471 606q4 -10 13.5 -23.5t23.5 -27.5q-12 14 -20.5 29.5t-12.5 29.5zM516 752q82 -4 167 -5.5t175 -1.5q53 0 106.5 3.5t102.5 13.5q-23 -4 -45 -4h-43q-25 0 -59.5 1t-75.5 3t-86 3t-88 1q-47 0 -86 -2 t-68 -12zM705 795q51 -2 106 -5.5t113 -3.5q72 0 140.5 9.5t121.5 39t85 82t32 138.5q0 29 -4.5 55.5t-10.5 54.5h-12q12 -49 12 -100q0 -92 -32.5 -145.5t-88 -81t-130 -34.5t-158.5 -7q-41 0 -85 -1t-89 -1zM713 399q6 -4 10 -6zM717 571q29 -23 65 -43l-59 43h-6z M741 610q41 -4 82 -6q39 -2 74 -4q-29 2 -57 6q-33 6 -66 6h-16q-9 0 -17 -2z" />
<glyph unicode="S" horiz-adv-x="1454" d="M20 137q0 12 14.5 22.5t34 18.5t39 14.5t29.5 10.5q98 -12 196.5 -20.5t196.5 -8.5q37 0 102.5 1t143.5 7t158 19.5t145.5 38t106.5 61.5t41 92q0 45 -19.5 81t-51.5 63.5t-71 46.5q-14 8 -30 14q16 -8 30 -16q37 -20 67 -50t48.5 -66t18.5 -81q0 -49 -36 -83 t-92.5 -56.5t-125 -34.5t-136 -18.5t-125 -7.5t-90.5 -1q-104 0 -209.5 7.5t-209.5 18.5q37 10 74.5 14.5t76.5 4.5q66 0 129.5 -1t126.5 -1q76 0 149.5 3t151.5 16l6 -25q31 6 78 19.5t91 34t76 51t32 71.5q0 59 -43 104.5t-109.5 81t-150.5 62.5t-165 47.5t-152.5 36.5 t-114.5 31v-12q43 -16 112.5 -34t150.5 -38.5t162.5 -46t148.5 -60t109 -80t42 -102.5q0 -33 -31 -57.5t-73 -42t-85 -27.5t-65 -14q27 6 68.5 17t81.5 29.5t68.5 44t28.5 60.5q0 57 -45 96t-118.5 70t-168 55.5t-193.5 53t-193.5 65.5t-168 92.5t-118.5 131t-45 182.5 q0 104 50 177t129 119t173 66.5t182 20.5q129 0 253 -37t235 -103q-12 -4 -14.5 -11t-3.5 -15t-4 -14.5t-13 -6.5q-8 0 -31.5 7.5t-50.5 16.5t-51.5 17.5t-32.5 12.5l-6 -19q18 -8 48 -23.5t57.5 -37t47 -46t19.5 -48.5q0 -27 -25 -27q-31 0 -72.5 16.5t-93 36t-109.5 35.5 t-118 16q-39 0 -91 -7t-100 -26.5t-81 -53t-33 -85.5q0 -47 44 -79.5t116.5 -59.5t165 -51.5t189.5 -54t189.5 -68.5t165 -94t116.5 -131t44 -178q0 -100 -41 -170t-108.5 -116t-153.5 -71.5t-177 -39t-180 -16.5t-161 -3h-205q-18 0 -50 1t-62.5 4t-53 11t-22.5 21l2 10 q84 -4 166 -7t165 -3h156q70 2 139 8q-35 -2 -69 -4h-84h-82q-193 0 -379 12q4 16 4 23q0 8 -4 16q-4 0 -11 -1t-18 -1q-23 0 -50.5 2t-53 8t-43 17.5t-17.5 27.5zM1133 104q37 12 71 29q39 16 74 57q-35 -31 -74 -51q-35 -18 -71 -35z" />
<glyph unicode="T" horiz-adv-x="1378" d="M0 1444q0 18 14.5 27.5t35 13.5t41 5t30.5 1q74 0 146.5 -8t146.5 -8q186 0 370.5 -5.5t370.5 -5.5q37 0 73 10.5t72 10.5q14 0 25.5 -8.5t11.5 -24.5q-55 -10 -112 -16q-51 -4 -105 -9q53 0 105 5q55 4 112 8v-39l37 6q16 -4 30.5 -15.5t14.5 -31.5q0 -18 -10.5 -36 t-22.5 -30q-158 0 -313 -9t-311 -9q27 -2 52.5 -3t53.5 -1q94 0 187.5 3t187.5 3h62q31 0 63 -2q-29 -18 -60.5 -26.5t-63.5 -11.5t-65.5 -3t-66.5 -2l-18 24q-47 -8 -94.5 -10t-94.5 -2l-182 2l2 -18l342 2q-174 -10 -342 -12q2 -27 4 -52.5t6 -52.5l-24 -6q16 -70 23 -153 t13.5 -169t17.5 -168.5t34 -150.5l6 6q-12 70 -22.5 151t-19.5 165.5t-18 166.5q-6 78 -10 146q8 -109 25 -228q18 -121 38.5 -244.5t40 -244.5t35.5 -231q4 -35 10.5 -75t6.5 -81v-25q0 -14 -4 -26q-14 0 -27.5 -5t-28.5 -5q-23 0 -27.5 22.5t-4.5 38.5h-19 q-2 -12 -7 -31.5t-14 -38t-22.5 -31t-29.5 -12.5q-20 0 -37 29t-30 74t-22.5 99t-16.5 104.5t-12 91.5t-9 59q-20 86 -38 188.5t-30 207t-19.5 208t-7.5 193.5q0 14 1 27.5t1 27.5v12q0 8 -2 17q-121 2 -229.5 11t-241.5 26q2 12 2 26t3.5 26.5t10.5 21.5t25 9q12 0 29 -4 l6 19q-25 10 -57.5 32.5t-32.5 53.5zM668 1219q4 -59 11 -131t15 -146t17.5 -144.5t17.5 -129.5q-6 57 -13 128.5t-13.5 145.5t-11.5 145.5t-5 131.5h-18zM676 1229h10v18h-10v-18zM825 1430q25 -4 47 -9q29 -6 64 -6q25 0 52 4t52 8h-112q-51 0 -103 3z" />
<glyph unicode="U" horiz-adv-x="1595" d="M113 684q0 90 13 177t31.5 173t37 173t28.5 175h49q12 -4 17 -20t4 -27q0 -29 -4 -55.5t-8 -54.5h18q2 12 13.5 48t26.5 72.5t33.5 66.5t37.5 30q12 0 18 -14.5t9 -33t4 -38t1 -29.5q0 -84 -11 -165t-25.5 -162.5t-25.5 -163.5t-11 -164q0 -109 24.5 -199t78.5 -154.5 t137 -100.5t200 -36q125 0 210 61.5t137 157t73.5 210t21.5 218.5q0 86 -8 170t-8 170v7q0 18 5 48.5t30 30.5q4 0 7 -56t5 -128t3 -137.5t1 -83.5v-82q0 -39 -4 -80q10 53 11 104.5t1 104.5q0 88 -4 176l-8 176h39q-4 20 -4 62q0 37 8 72.5t35 35.5q12 0 24.5 -12 t21.5 -28.5t16.5 -34t11.5 -25.5q-8 -33 -11.5 -67.5t-3.5 -71.5q0 -80 2 -163t2 -155q0 -145 -21.5 -293.5t-80.5 -271.5t-168 -208t-281 -103q186 18 299 109t174.5 225.5t82 294t20.5 313.5q0 63 -2 126.5t-2 127.5v47q0 25 2 47q27 -63 32 -155.5t5 -174.5 q0 -86 -2 -152.5t-15 -152.5l-20 -31q-16 -145 -61.5 -266t-125 -208t-196.5 -135t-272 -48q-129 0 -253 36t-221 128l-4 -15q96 -94 218 -131t253 -37q147 0 260 45.5t196 126t136 193.5q51 109 80 242q-29 -137 -78 -248q-49 -115 -129 -197t-192.5 -126t-268.5 -44 q-178 0 -306 55.5t-210 156t-120.5 239.5t-38.5 307zM924 150q29 6 58.5 17t56 26.5t49 32t34.5 28.5q-29 -16 -76 -47t-122 -57z" />
<glyph unicode="V" horiz-adv-x="1359" d="M41 1305q14 8 25.5 14t21.5 6q12 0 23.5 -18.5t21.5 -41t17.5 -45l9.5 -28.5l18 12q-10 39 -16 78t-6 80v16q0 14 3 27.5t9 24t16 10.5q14 0 51 -61.5t83.5 -156t98.5 -208t100 -219t85 -187.5t53 -112q25 -49 48.5 -99.5t52.5 -99.5q90 199 147 410l115 421 q6 20 18.5 86t28.5 136.5t34.5 126t37.5 55.5l6 -2q-33 -141 -61.5 -279.5t-63.5 -277.5q39 135 69.5 272t69.5 273l19 -13q4 14 13 40t21.5 51.5t27.5 44t32 18.5q12 0 21 -14.5t13.5 -33t6.5 -37t2 -26.5q0 -4 -5 -17t-8 -20q-53 -176 -95 -354t-86 -355t-99 -351 q-53 -170 -129 -336q76 162 131 331q57 174 105.5 351.5t92.5 355.5t98 352q0 -80 -12 -157.5t-30.5 -155.5t-41 -154.5t-40.5 -152.5h-18q-47 -219 -117 -430q18 49 38.5 98t43.5 96l14 29q0 -10 -24.5 -75.5t-58.5 -153t-71 -179.5q-37 -88 -63 -149l57 164 q-70 -168 -159 -334v-6q-43 0 -83 1t-83 7q-12 33 -29.5 73t-35 80.5t-35 79.5t-31.5 72l-9 -12q-43 88 -93 178t-97 173t-86 151.5t-57 111.5q-49 106 -84 219t-72 226zM541 197q27 -45 47 -95.5t26 -101.5q-16 37 -36.5 93.5t-36.5 103.5zM614 -2q8 -12 26.5 -29.5 t29.5 -34.5l-33 5q-4 10 -9 25.5t-14 33.5zM748 -61q20 2 38 2h70l49 102h8l-51 -109q-29 4 -57 5h-57zM850 432q47 111 84 227q49 154 84 314q-41 -158 -88 -314q-35 -115 -80 -227zM905 45q4 8 12.5 27.5t20.5 46.5l-25 -74h-8z" />
<glyph unicode="W" horiz-adv-x="1894" d="M41 1243l51 6q10 -6 17 -29.5t11.5 -52t6 -55.5t2.5 -37l18 6q0 16 2.5 60.5t10.5 90.5t23.5 81t39.5 35q12 0 25.5 -63.5t32 -165t41 -229.5t54.5 -256t72.5 -246t94.5 -198q18 90 48 196t58.5 197t50 152.5t25.5 63.5l219 6q27 -18 49.5 -66.5t43 -112t39 -136t39 -141 t43 -127t48.5 -93.5l19 -2q31 0 62.5 39t63 99.5t60.5 133t52.5 141t40 125t24.5 83.5q8 31 17 85t19.5 117.5t21.5 128t23.5 116.5t27 86t30.5 34l10 -2q-61 -395 -176 -778q63 188 105.5 380.5t83.5 384.5l16 -16q2 14 12.5 52t23.5 78t29.5 71t32.5 31q12 0 21.5 -20.5 t13.5 -47.5t6 -52.5t2 -33.5q0 -6 -6 -26.5t-8 -28.5q-16 -70 -40 -193t-56.5 -269.5t-77.5 -297.5q-41 -145 -94 -268q55 123 100 266q47 152 83 296t62.5 267t42.5 192q0 -104 -16 -215.5t-43 -224t-59.5 -223.5t-63.5 -209l-31 -12q-18 -66 -51 -156t-83 -171 t-116.5 -137t-150.5 -56q-63 0 -113.5 27.5t-90.5 73.5t-69.5 105.5t-53 123t-42 128t-32.5 117.5q-5 -15 -9 -35q27 -88 54.5 -178t67.5 -167t100.5 -133t152.5 -75q-88 6 -150.5 57.5t-105.5 126t-69.5 160.5t-38.5 158q-6 -49 -19.5 -108.5t-34 -118t-48 -110.5 t-64.5 -89l-174 -31q-88 49 -154.5 140.5t-117 207t-84 247.5t-56 261t-34 249t-13.5 210zM813 342h12q2 14 4 27.5t7 27.5l-9 25q-4 -20 -7 -40t-7 -40zM866 487q8 -49 23.5 -109.5t36 -121.5t48 -119.5t64.5 -104.5t83.5 -74t103.5 -28q63 0 119.5 40t105.5 108 q-53 -53 -106.5 -92t-118.5 -39q-53 0 -97.5 29.5t-80 77.5t-63.5 108.5t-50.5 120t-38.5 114t-29 90.5zM1120 195q6 -18 15 -39q10 -20 23 -39t29.5 -30t37.5 -11q33 0 64.5 29.5t59 72.5t50 91t39.5 87q-16 -37 -40 -85t-51.5 -89t-59.5 -69.5t-62 -28.5q-9 0 -21 4 q-25 6 -49 39q-23 33 -35 68zM1247 -115q70 12 127.5 52t103.5 95.5t78 121.5q18 35 35 69q-14 -37 -32 -76q-33 -70 -78 -128t-103.5 -96t-130.5 -38zM1591 223q4 13 8 21q-4 -10 -8 -21zM1599 244l9 18q-4 -10 -9 -18zM1608 262q2 8 6 14q-4 -6 -6 -14z" />
<glyph unicode="X" horiz-adv-x="1484" d="M20 1196q14 10 22.5 25.5t27.5 17.5q18 -8 34.5 -21.5t28.5 -27.5l12 18q-16 23 -28.5 51.5t-12.5 57.5q0 16 8.5 29.5t26.5 13.5q12 0 53 -26.5t96.5 -67.5t120 -90.5t123 -94.5t104.5 -80.5t64 -48.5q43 88 75 140.5t62.5 94.5t65.5 86t82 116q10 -16 30.5 -21.5 t20.5 -26.5q0 -10 -13 -31.5t-17 -27.5l18 -12q23 20 50.5 38.5t58.5 18.5q37 0 36 -37q0 -35 -32.5 -99.5t-76.5 -138t-86 -143t-61 -114.5q29 -23 81.5 -71t113.5 -110.5t124.5 -132t115 -136t84 -123t32.5 -89.5q0 -18 -20 -22q-29 53 -62 102q-31 45 -63 88 q31 -43 57 -88q29 -49 56 -102l-33 -19l26 -43q0 -23 -6 -44t-35 -21q-18 0 -33.5 8t-31.5 18q-49 123 -101.5 207t-111.5 148.5t-128 120t-151 122.5v-2q72 -57 142.5 -121.5t133 -137.5t112 -153.5t77.5 -170.5q-27 18 -52.5 52t-49.5 70l-49 76q-25 39 -49 66l20 18 q-76 68 -147.5 138.5t-149.5 136.5l-8 -17q59 -49 115.5 -101t109.5 -110q-53 55 -111.5 105.5t-117.5 97.5q-70 -129 -138.5 -256t-136.5 -256q-6 -14 -16 -46t-22.5 -64.5t-26.5 -58.5t-33 -26l-14 7q23 53 39 107t41 106q-27 -51 -47.5 -103.5t-45.5 -103.5 q-10 20 -30.5 37.5t-44.5 17.5q-4 0 -28 -4t-30 -14l-10 6q18 10 33.5 37.5t28 56.5t20.5 51q8 20 12 23q0 2 -2 4q-4 2 -4 6v2q-23 -43 -46 -83t-50 -79q-4 20 -4 31q0 33 16.5 61.5t26.5 59.5q23 35 40 75.5t34 79.5l20 -12q45 127 116.5 255t127.5 251l-17 10 q-55 -119 -118.5 -250t-122.5 -247q57 119 110.5 237.5t106.5 239.5q-53 35 -111.5 72.5t-115 77.5t-108.5 83t-95 92q-35 41 -68 81t-70 77zM496 395l98 197q-29 -47 -52.5 -96.5t-45.5 -100.5zM549 164v2v-2zM551 170q12 23 29 55q20 39 40.5 79t38.5 75q14 29 25 45 q-76 -125 -133 -254zM559 743l33 -22l6 16l-33 19zM973 694q55 -57 110.5 -112.5t108.5 -114.5q-45 76 -103.5 124t-115.5 103z" />
<glyph unicode="Y" horiz-adv-x="1339" d="M20 1399q16 4 26.5 15t27.5 13q16 -6 29.5 -22t23.5 -33l18 12q-16 43 -16 82q0 16 7 40t30 24q25 0 63.5 -38t84.5 -97.5t93.5 -132t88.5 -140t70.5 -124t39.5 -80.5l35 22l12 -12q29 43 66 78.5t74.5 70.5t73.5 71t61 81l-13 6q-59 -76 -129 -143q-66 -61 -129 -127 q98 109 191 213q96 111 194 227l86 94q6 -4 15.5 -8t20 -8t17.5 -10.5t7 -14.5q0 -6 -5 -15t-9 -13l18 -13q35 31 78 31q23 0 36 -12.5t13 -34.5q0 -47 -33 -103.5t-84 -117t-111.5 -121t-118 -113.5t-101.5 -97t-62 -71q-8 -2 -21.5 -14t-29 -26.5t-31.5 -26t-31 -11.5 l-24 9q4 10 28.5 36.5t55 55t57.5 53.5t37 33q-27 -8 -56.5 -32t-57 -51.5t-49 -54t-28.5 -40.5q0 -59 -4 -138t-11 -163t-17.5 -166t-21.5 -145.5t-24.5 -103.5t-27.5 -40q-4 0 -12 4q10 74 20 147q10 68 21 136l-54 -283l-28 8q-4 -23 -18.5 -51.5t-41.5 -28.5 q-23 0 -43 21.5t-20 44.5q0 10 10 63.5t23 118.5q-10 -41 -21.5 -80t-23.5 -78q-14 29 -15 64q0 66 17.5 128t27.5 128h21q2 78 10 156.5t8 156.5q0 76 -16.5 147.5t-59.5 135.5l-12 -6q14 -25 27.5 -61t24 -74.5t17.5 -76.5t7 -65q0 -76 -5 -151.5t-22 -149.5 q6 59 12.5 119.5t6.5 120.5q0 92 -22.5 175t-59.5 162t-85 151.5t-102 144.5q-39 53 -64.5 109.5t-60.5 109.5zM449 362q8 41 14 83t6 85q0 78 -16 166q6 -68 6 -135q0 -49 -3 -99.5t-7 -99.5zM582 240v6v-6zM584 252q14 86 24 170q10 82 15 166q-8 -84 -19 -166 q-10 -84 -20 -170zM621 883l4 -11q25 12 56.5 41t64 63t62.5 68.5t52 59.5q-63 -53 -116.5 -115.5t-122.5 -105.5z" />
<glyph unicode="Z" horiz-adv-x="1478" d="M41 106q23 51 54.5 89t70.5 71q111 94 207 203t186 222.5t181 227t194 216.5h-461q-129 0 -254 -13v4q0 12 -4 25.5t-4 17.5q0 14 23.5 22.5t53 12.5t57.5 5t36 1v19q-12 0 -55 4t-90.5 11t-84 20.5t-36.5 31.5q0 16 42 29.5t111.5 25t156.5 18.5t177 12t175 8.5t151 3.5 q39 0 81 -7.5t84 -15.5t83 -15t75 -7q12 -45 23.5 -104.5t21.5 -121.5q-53 -27 -126.5 -102.5t-157.5 -176t-174 -215t-176.5 -218t-163 -184.5t-133.5 -115q111 -23 221 -36.5t221 -23.5q29 -2 76 -3t99 -1t105.5 -1t95.5 -5t68.5 -11t26.5 -20l-2 -10q-164 4 -326 7 t-325 20q160 -20 321.5 -24.5t323.5 -14.5l-6 -37q4 0 9 1t13 1q20 0 50 -3t56.5 -10.5t46 -18.5t19.5 -25t-15.5 -23.5t-34.5 -16t-40 -10.5l-29 -8q-201 27 -404.5 29t-406.5 20q190 -23 379 -34t381 -27q-49 -12 -99 -16.5t-102 -4.5q-135 0 -260 10.5t-260 22.5l-18 25 q-104 4 -222 22.5t-216 59.5q-18 41 -34 82t-36 79zM49 113l6 -19l11 25q10 29 37.5 57.5t50.5 48.5q180 156 336.5 332t297.5 367l-24 10q-102 -125 -199.5 -250t-206.5 -244q-39 -43 -79.5 -80.5t-80.5 -76.5t-78 -81t-71 -89zM74 82l43 -109l6 -8q29 -16 64.5 -27.5 t74.5 -17.5t78 -10q25 -2 51 -4q-63 10 -125 31q-72 25 -143 38l-37 101q4 25 42 66.5t86 89t94 92.5t69 73q-18 -23 -66.5 -63.5t-98.5 -86.5t-88 -88t-38 -65zM109 -76l8 8q55 -25 112 -36q51 -12 105 -25q-54 11 -107 23q-59 14 -118 30zM322 70q66 -14 131 -25 q63 -10 127 -16q-63 8 -123 22q-59 14 -125 29z" />
<glyph unicode="[" horiz-adv-x="768" d="M102 43h21q-2 35 -3 67.5t-1 67.5q0 160 10 316.5t10 316.5q0 59 -2 115.5t-6 115.5l-8 -6l-4 4q0 -123 -4 -243q-4 -92 -9 -187q4 246 3 490q0 270 12 547q51 2 100 5t101 3q92 0 183 -11.5t183 -11.5l-4 -12q2 -8 4 -17.5t2 -17.5q0 -18 -21.5 -22t-31.5 -4l-64 2v-23 q14 -2 43 -8t57.5 -16.5t51.5 -24.5t23 -33q0 -23 -29 -32t-73 -13t-94 -5t-94 -4t-73 -13.5t-29 -30.5v-395q0 -229 -3 -458t-19 -460q53 6 105.5 17.5t105.5 11.5q10 0 33.5 -7.5t23.5 -17.5q0 -6 -30.5 -12t-73.5 -12.5t-90 -12.5q-41 -4 -70 -6q63 4 127 12q68 8 133 13 l2 -33q20 4 43 4q31 0 59.5 -9t28.5 -34q0 -23 -27.5 -40t-44.5 -28h-12q-98 0 -193.5 -14t-193.5 -14h-12l-107 2q4 184 13 366q10 174 10 351q-4 -178 -12 -351q-6 -182 -17 -368l70 -4q35 -2 69 -2q90 0 178.5 9t178.5 9q-39 -20 -85 -31.5t-94.5 -17.5t-96.5 -8t-91 -2 q-41 0 -81 2t-81 4v221zM106 557v53v-53zM225 4l43 -10l-4 12zM289 262q0 -41 1 -84t1 -84v-53q6 121 10 239.5t12 239.5q-16 -66 -20 -130t-4 -128z" />
<glyph unicode="\" horiz-adv-x="1003" d="M102 1315q0 12 4.5 23.5t20.5 11.5q25 -78 59.5 -153t72.5 -147.5t77 -146.5q35 -68 70 -135q-31 68 -66 135q-39 74 -76 146.5t-70.5 146.5t-56.5 154l33 10l-14 43q2 18 11 36.5t32 18.5q18 0 34.5 -9t30.5 -19q20 -84 57 -171.5t82.5 -173.5t94.5 -170q47 -80 90 -151 q-41 74 -86 149q-47 80 -91 162t-78 167t-48 171q23 -18 42 -51t36.5 -70t33 -73.5t29.5 -63.5l-18 -20q45 -70 84.5 -141.5t78.5 -143.5t79 -143.5t85 -141.5l10 6q-72 141 -153.5 275.5t-153.5 275.5q35 -66 83 -143.5t99.5 -164.5t101.5 -178t90 -180t64.5 -173 t24.5 -156q0 -51 -7 -101.5t-13 -101.5q-6 2 -11.5 3t-11.5 1t-12 -1t-10 -1q-10 0 -17.5 6.5t-7.5 28.5v8l2 39h-22q-4 -14 -10.5 -31.5t-16.5 -34t-24.5 -27.5t-30.5 -11q-25 0 -38.5 33.5t-19.5 77.5t-8 87t-4 60q-12 70 -56 173t-104.5 219t-126 236.5t-122 225 t-92.5 184.5t-36 115zM406 768q2 -6 6 -10q-2 4 -6 10z" />
<glyph unicode="]" horiz-adv-x="851" d="M20 -66q0 12 10.5 22.5t26 18t29.5 12.5t25 9l196 -33q98 -16 199 -20l-2 6q-92 4 -179 22.5t-175 34.5q25 4 49 7t49 3q63 0 125.5 -7t124.5 -19q-18 49 -28.5 119.5t-17 146.5t-8.5 149.5t-2 126.5q0 160 9.5 320t9.5 319q0 39 -1 76t-3 76q-92 0 -183.5 11.5 t-183.5 11.5v8q0 14 -2 23t-2 16q0 18 24.5 22t43.5 4h8l49 -2v23q-14 2 -45 7t-62.5 15.5t-55 23.5t-23.5 32q0 23 51 35t116.5 18t127 7t79.5 1q72 0 144.5 -1t144.5 -3q10 -117 17.5 -231.5t7.5 -231.5q0 -176 -13.5 -350t-13.5 -350q0 -80 8 -158t18.5 -157t21.5 -156.5 t16 -155.5q-47 -8 -93.5 -15.5t-93.5 -7.5q-16 0 -52 1t-83 3.5t-97 6.5t-91 11t-69 16.5t-30 23.5l4 10q86 -10 170 -18q84 -10 168 -15q-84 6 -166 19q-82 12 -165 24l10 23q-10 2 -34 8t-47.5 15.5t-42 20.5t-18.5 23zM449 504q0 -16 1 -59.5t4 -99.5t7 -117.5t11 -113 t17.5 -86t24.5 -38.5q-20 106 -34.5 211.5t-14.5 214.5q0 135 4 266t4 266h-10q-4 -111 -9 -222t-5 -222zM492 465q0 -16 1 -56t3 -92.5t5 -107.5t9 -103.5t15.5 -80t21.5 -35.5q-25 143 -39 286.5t-14 290.5q-2 -27 -2 -51v-51zM506 -51l6 -8l53 2zM649 346 q0 -117 21.5 -232.5t31.5 -232.5q-10 129 -29.5 258t-21.5 260q-2 -14 -2 -26v-27z" />
<glyph unicode="^" horiz-adv-x="1314" d="M102 1044q0 18 18.5 51t48.5 73t65.5 83t69.5 84t61.5 75t42.5 54l239 371l164 -14q6 -76 18.5 -138.5t37 -123t66.5 -125t109 -142.5q10 -12 31 -28.5t41.5 -35t37.5 -34.5t22 -29l-9 -20q-55 31 -106 78t-96 102t-80 117q-33 57 -58 117q23 -59 56 -117 q37 -61 80 -117.5t93 -106t103 -81.5l-16 -29q23 -6 47 -22.5t24 -45.5t-28.5 -39t-50.5 -12q-74 37 -134.5 90.5t-109.5 117t-92 132t-84 137.5l-4 -8q72 -135 164 -261t225 -208q-45 0 -87 24.5t-79 60.5t-69 77t-56 74l16 14q-41 43 -72.5 91t-60.5 100l-6 -11 q20 -45 45 -84l49 -78q-27 37 -51.5 76t-46.5 82q-88 -139 -194.5 -259t-227.5 -232l-39 47l43 57l-16 16q-23 -16 -47.5 -26t-53.5 -10q-16 0 -29.5 9t-13.5 27zM580 1315l6 -15l100 140l-8 14zM696 1485l9 -17l4 7l-11 16z" />
<glyph unicode="_" horiz-adv-x="1208" d="M102 -326q0 23 14.5 36.5t36 19.5t44 7t39.5 1q98 0 197 9t198 9q16 0 57 -3t92 -8t105.5 -13t99.5 -18.5t75 -23t30 -24.5q0 -6 -5 -18q-86 27 -174 39q-86 10 -172 24q84 -20 168 -33q88 -12 174 -40l-8 -33q16 0 24.5 -12.5t8.5 -26.5q0 -23 -14.5 -40.5t-30.5 -33.5 q-25 14 -58.5 26.5t-70.5 21.5t-74 13.5t-67 4.5h-11l-90 -2q45 -4 91 -5.5t92.5 -7.5t90.5 -20.5t83 -40.5l-35 -14q-29 0 -45.5 10t-44.5 14l-23 23q-59 0 -116.5 7t-116.5 7q-49 0 -95 -12v-13q-88 -4 -174 -10t-174 -12q-23 10 -48 15t-50 5q0 4 1 7.5t1 7.5q0 16 -4 37 l27 22l14 -2v23q-23 10 -42.5 29.5t-19.5 47.5zM623 -492q20 2 41 3h41q47 0 94 -3.5t94 -13.5q-66 8 -133.5 11t-136.5 3z" />
<glyph unicode="`" horiz-adv-x="559" d="M41 1538q4 10 6 23.5t4 25.5q4 18 17 19q2 0 10 -4l8 20q-12 16 -18.5 36.5t-6.5 37.5q2 10 4.5 21.5t8.5 17.5q6 2 18 8t23 6q57 0 114.5 -35t106.5 -83t87 -99t56 -82q6 -12 22.5 -14t16.5 -15q0 -16 -8 -32q-45 23 -74.5 56.5t-58.5 80.5q23 -49 57.5 -86t69.5 -60 q-4 -8 -7 -15t-5 -17q10 0 12 -9.5t2 -19.5q0 -27 -13.5 -48.5t-29.5 -31.5l-8 6q-61 51 -108.5 95t-98.5 96q35 -47 85 -98.5t116 -106.5q-16 -10 -33 -10q-10 0 -23.5 8t-27 19.5t-25.5 23.5l-21 20l15 17q-29 14 -49.5 36.5t-37 45t-34.5 42t-43 29.5q0 -4 -8 -8 q41 -31 74 -72q33 -39 73 -82q-29 29 -67 66q-43 41 -84 78t-73 63.5t-44 30.5zM309 1300q4 -4 8 -6q-4 2 -8 6z" />
<glyph unicode="a" horiz-adv-x="1392" d="M164 1038q0 10 25.5 28.5t72.5 36t113.5 31t148.5 13.5q158 0 270.5 -48t189.5 -127t125 -179.5t78 -202t44 -196.5t26 -165q0 -12 1.5 -24t1.5 -29q0 -59 -21.5 -103t-59.5 -74t-88.5 -45t-107.5 -15q-45 0 -116.5 2t-137.5 12q-43 10 -94 15t-104.5 17.5t-103.5 35 t-90 68.5t-63.5 120t-23.5 186q0 106 49 171t117.5 100.5t140.5 47t117 11.5q57 0 75.5 -8t18.5 -17q0 -6 -2 -10q-51 0 -131 -4t-154.5 -26.5t-128 -68.5t-53.5 -130q18 76 62.5 120t101.5 65.5t117.5 26.5t109.5 5h70q-8 -8 -8 -16t8 -15h80q33 -6 47 -21.5t14 -27.5 q0 -18 -18.5 -32.5t-61.5 -28.5q-55 0 -82.5 2t-50.5 2q-61 0 -108.5 -6.5t-80 -24.5t-49 -53t-16.5 -92q0 -84 19.5 -124t55.5 -57.5t87 -21.5t115 -19q37 -4 73.5 -5t73.5 -1h148q-102 6 -204 7t-182.5 17.5t-131 57.5t-50.5 125q0 68 17.5 103.5t47 53t70.5 20.5t89 3 q57 0 116 -6q-47 -14 -95 -21.5t-89 -14.5t-70.5 -18t-40.5 -32v-92l-16 -8q8 -51 15 -77t40 -39t105.5 -21.5t212.5 -26.5h147q39 0 46 3t9 3l-18 111q-4 41 -10 73.5t-17 69.5q-2 -6 -12 -6q10 -35 17.5 -74t12.5 -73.5t8 -59.5t7 -29l-12 -4q-4 -2 -12 -2h-13 q-14 0 -32.5 3t-47.5 3h-67q-80 0 -148 9q-63 8 -110 20q47 -10 114 -16q72 -8 134 -9q27 0 56.5 1.5t63.5 1.5h68q-6 6 -14 6h-4q-8 141 -37 270t-92.5 226.5t-166 155.5t-255.5 58q-43 0 -86 -6t-88 -16q4 4 4 8q0 10 -8.5 19.5t-8.5 19.5q0 12 25.5 23t109.5 22 q-4 4 -5 12t-1 13q-111 0 -172 5t-61 29zM383 96q39 -35 94 -55q57 -23 117.5 -35t120.5 -16q59 -6 110 -6q-41 4 -82 14q-43 10 -75 18q-35 8 -69 11.5t-69.5 9.5t-72.5 19.5t-74 39.5zM489 260l9 -4q-2 2 12 -12q12 -12 33 -19q-10 4 -31 11q-23 8 -23 24zM543 225h6h-6z " />
<glyph unicode="b" horiz-adv-x="1323" d="M102 1032q2 41 5.5 90t6.5 101.5t5 103.5t2 98q0 16 -1 32t-1 30q6 -6 12 -6q8 0 17.5 5t17.5 5q6 0 12 -6t11.5 -22.5t7.5 -48.5t2 -81h18q8 113 29.5 176.5t44.5 63.5q27 0 39 -65.5t17 -165t9 -217t17 -222.5q23 -121 37 -257t18 -265q0 -96 -2 -137t-6 -60v-55l69 6 q66 0 135.5 7.5t116.5 23.5q86 14 134.5 42t73 60.5t30.5 69.5t6 70q0 63 -9 121.5t-36 108.5t-78 92t-133 75q-90 35 -130 41t-40 24q0 2 4 15q86 -4 172 -41q80 -35 146 -88q-63 53 -142 88q-84 39 -170 47q6 8 6 20q0 6 -6 17h-34q-14 0 -31 -2t-27 -4q-49 4 -68.5 14 t-19.5 25q0 20 33.5 40.5t66.5 30.5h35q119 0 236 -42t209 -117.5t148.5 -181t56.5 -230.5q0 -133 -37 -222t-104.5 -146.5t-162 -89.5t-208.5 -52q72 6 160.5 26.5t167.5 72.5t132.5 145.5t53.5 244.5q0 186 -104.5 336t-311.5 225q-51 23 -105.5 36.5t-109.5 13.5 q18 10 49 11t49 1q80 0 165 -33t160.5 -90t134 -134t87.5 -163q-10 -4 -19 -16q16 -51 24.5 -100.5t8.5 -100.5q0 -57 -9 -114.5t-37 -113t-78 -104.5t-132 -88t-200.5 -64.5t-282.5 -33.5q-10 -6 -28.5 -7t-37.5 -1h-28q-31 0 -64 11t-59.5 38.5t-43 74t-16.5 115.5v23 q-2 -8 -6 -8q-6 0 -6 4v-11q0 -37 4 -83t23.5 -86.5t61.5 -68.5t120 -28q18 0 37.5 1t42.5 7q150 6 286 33t240.5 87.5t166 165t61.5 267.5q0 53 -9 109q2 -23 7 -43q4 -33 4 -66q0 -45 -5.5 -102t-27 -116.5t-62.5 -117t-114 -100.5q-76 -45 -157 -70.5t-153.5 -39 t-131 -16.5t-87.5 -3h-24q-18 0 -38 -3t-42 -3h-10q-18 0 -46 4t-57.5 20.5t-54.5 52.5t-35 101q-4 23 -6 45.5t-6 40.5q0 41 6 77t6 58v375zM881 756q4 -2 6 -6q-4 2 -6 6zM942 201q53 37 70.5 94t17.5 145q0 14 -2 27q0 10 -2 22v-22q2 -11 2 -21q0 -94 -22.5 -153.5 t-63.5 -91.5zM1206 575l2 -8zM1208 559v6v-6z" />
<glyph unicode="c" horiz-adv-x="1177" d="M102 444q0 129 47.5 242t125 196t179 131t210.5 48q18 4 45.5 5t46.5 1q66 -14 132 -34.5t132 -57.5q-8 -4 -11 -11.5t-5.5 -16.5t-7.5 -15t-17 -6q-10 0 -30.5 6t-57.5 18q-6 -6 -6 -18q49 -25 67.5 -56.5t18.5 -60.5q0 -14 -31 -24q-27 0 -83 10t-126 10 q-31 0 -67.5 -3t-73.5 -12.5t-70 -26.5t-53 -46q-25 -33 -45.5 -74t-36.5 -83t-25.5 -81t-9.5 -69q0 -29 26.5 -65t68.5 -67.5t96.5 -54t109.5 -22.5q27 0 65 8t78 19.5t78.5 19.5t65.5 8q25 0 32 -5t7 -19q-47 -16 -98 -33q-33 -10 -64 -21l64 17q49 14 98 30q0 -10 1 -18 t11 -18l21 8q16 6 34 16q41 0 56.5 -8t15.5 -25q0 -10 -3 -17t-8 -14.5t-13.5 -17.5t-16.5 -28q-90 -37 -185 -57.5t-194 -20.5q-90 0 -176 20.5t-157.5 65.5t-126 117.5t-82.5 175.5q6 -90 49 -155t107.5 -111t142 -74.5t149.5 -46.5q10 -2 29 -3q121 0 219 20.5t201 43.5 q-33 -27 -79 -46.5t-100.5 -32.5t-114 -20.5t-118.5 -7.5h-23q-10 0 -20 3l-14 26q-74 8 -154 37t-146.5 81t-110.5 128t-44 176q0 84 22.5 164t59.5 156q-2 -2 -6 -3q-6 0 -6 9q-37 -74 -62.5 -153t-25.5 -171q0 -98 45 -174t107.5 -128t127.5 -85q59 -29 98 -41 q-63 18 -129 53q-70 37 -126 93.5t-93 131t-37 164.5zM332 354q16 -37 49 -70.5t75 -59t89 -42.5q45 -16 90 -18q-41 4 -86 20q-47 16 -89 42t-76 58.5t-52 69.5zM487 2q5 -2 9 -2q-4 0 -9 2zM803 182q6 2 12 2q-6 0 -12 -2z" />
<glyph unicode="d" horiz-adv-x="1347" d="M102 666q0 76 24 154.5t85 142t165.5 103.5t264.5 40q74 0 143.5 -3t141.5 -7q-8 -6 -8 -15q0 -10 4 -17t4 -15q0 -10 -15.5 -17.5t-64.5 -7.5q-16 0 -38 1t-48 3v-18q98 -14 158.5 -38t74.5 -42l4 -4l9 90q6 55 6 125q0 72 -4 141.5t-4 108.5q0 49 6 65.5t16 16.5 q8 0 13 -35t8.5 -79t3.5 -87v-60q0 -59 -2 -119.5t-7 -119.5q6 78 10.5 152.5t4.5 152.5q0 47 -2 93t-6 93q12 -12 18 -12q8 0 12 12q-2 16 -4 35q-2 16 -2 33v31q10 25 26.5 38t28.5 13q35 0 62 -76l-6 -43q4 -59 6 -115.5t2 -115.5q0 -123 -7 -247t-17.5 -251t-20.5 -260 t-19 -277q0 -23 -1 -46t-5 -52v-25q0 -6 -4 -16t-8 -14q-27 -31 -48.5 -46.5t-39.5 -22.5t-34.5 -8t-33.5 -3h13q6 0 23.5 2t39 7t41 14.5t27.5 25.5l18 37q12 23 15.5 48.5t4.5 51t1 50t4 47.5q6 129 17 258t21.5 260t18.5 265t8 273q0 43 -1 83t-3 77q6 -8 14 -25.5 t11 -54.5q10 -23 12 -49.5t6 -54.5q0 -139 -10 -269.5t-21 -259.5l-18 -6l-18 -350q0 -147 -13.5 -242.5t-23.5 -126.5v-6q-31 -31 -52.5 -46t-40 -23.5t-34 -9.5t-31.5 -1h-131q-47 5 -101 5h-17h-9q-60 0 -125 14q-70 14 -142.5 59t-146.5 144q0 -4 -2 -6.5t-4 -6.5 q68 -92 163 -151.5t206 -69.5h172q25 -4 50.5 -5t55.5 -1q31 0 81 8t95 53q8 10 11.5 15.5t7.5 15.5l6 12q10 18 15.5 38t9.5 38q0 -23 -3.5 -39t-15.5 -49l-6 -6l-25 -37q-18 -18 -40.5 -28.5t-43 -15.5t-38 -7t-25.5 -4h-68q-27 0 -44 1t-26 2t-16 3h-61q-18 0 -36.5 -1 t-39.5 -1q-96 0 -187 46t-168 130t-136.5 198.5t-89.5 254.5q0 23 -3.5 43t-3.5 43zM348 702q0 -68 29 -151.5t76 -158.5t107.5 -128t125.5 -59h117q10 0 15 -1t16 -5h49q31 -6 61 -6q0 172 15.5 353t33.5 355q-26 -20 -141 -20q-68 -4 -153 -8.5t-160.5 -21.5t-130 -52 t-60.5 -97zM979 186l2 -4q2 18 4 38t2 40v6zM987 281q2 8 2 16t4 18v23q-2 -4 -2 -7t-2 -5l-2 -4v-41zM993 358q23 115 27 242t10 244q-10 -98 -15.5 -193.5t-15.5 -193.5q0 -23 -3 -46.5t-3 -52.5zM1178 139q0 10 1 19.5t1 19.5q0 16 -1 31t-1 27q0 23 2 46t6 50 q-2 -61 -2 -115.5t-6 -77.5zM1186 336q0 41 2 83t6 77l-4 -88q0 -18 -1 -37t-3 -35zM1196 516l8 125l4 -74q-4 -10 -6 -23.5t-6 -27.5z" />
<glyph unicode="e" horiz-adv-x="1173" d="M102 481q0 135 45.5 268.5t141.5 245.5q123 113 268 173.5t281 60.5q43 0 88 -14.5t81.5 -44t60.5 -76.5t24 -115q0 -55 -27 -135t-79 -155t-130 -127t-180 -52h-68q-76 16 -138 37.5t-118 34.5q-8 -33 -9 -63t-1 -58q0 -59 13.5 -115.5t42 -103.5t72.5 -79t108 -40 q39 -8 67.5 -9t48 -2t28.5 -6.5t9 -19.5q-20 -6 -41.5 -8t-44.5 -2q-72 0 -129 23.5t-98 54.5q47 -47 112.5 -66.5t128.5 -19.5q35 0 72 6q-4 -12 -4 -15q0 -12 10 -16q8 2 28.5 11t42 18.5t42 16.5t29.5 7q10 0 18 -3t8 -23t-14 -49t-43 -58q-78 -27 -119 -30t-72 -5 q-115 0 -207 43t-157.5 117t-101 173t-35.5 212q0 66 12 136.5t36.5 139t63.5 128.5q37 59 88 106q-53 -43 -90 -102q-39 -59 -65.5 -128t-38.5 -141.5t-12 -140.5q0 -86 27.5 -183.5t89 -180t158.5 -138t237 -55.5q66 0 137 18q-78 -51 -174 -51q-78 0 -146.5 23.5 t-127 65.5t-105.5 99.5t-80 123.5l18 16q-35 70 -50 139.5t-15 140.5q0 104 29.5 200.5t78.5 182.5l49 68q12 23 36 45.5t52.5 44t60.5 38.5t60 32q74 37 148 66.5t172 43.5l-8 7q-188 -18 -319.5 -91t-213.5 -177.5t-118.5 -228.5t-36.5 -243q0 -63 11 -127.5t34 -128.5 q-51 123 -52 260zM365 219q18 -34 49 -61q-14 16 -29 32q-12 14 -20 29zM371 653l100 -30q4 4 5 12t1 12l-96 35zM446 795q31 -6 60.5 -11.5t58.5 -9.5l45 -8q23 -4 41 -4q20 0 48 13t55.5 38t49 61.5t32.5 83.5l4 13q-29 0 -86.5 -14.5t-119 -38t-114.5 -55.5t-74 -68z" />
<glyph unicode="f" horiz-adv-x="1064" d="M102 -373l13 49l24 31q45 53 80 102.5t60.5 103.5t45 117.5t35.5 147.5q-10 -49 -25.5 -100t-33.5 -98.5t-39.5 -87t-48.5 -66.5l-86 -107q16 49 41 91.5t51.5 89.5t51 104t40.5 137l19 2q16 111 21 218.5t5 220.5q0 80 -1 161.5t-3 167.5q-4 -2 -10 -2h-10 q2 -109 7 -211t5 -202q0 -86 -8 -170q-6 -80 -25 -160q16 72 21 145q6 76 6 154q0 106 -6 217t-8 227q-12 -2 -28.5 -3t-51.5 -1q-47 18 -92 19v8q0 8 -1 17t-1 20q0 25 22 24l16 23q-29 10 -43 32.5t-14 45.5q0 31 20.5 43t50.5 17q26 4 54 4h12h14q27 0 50 3 q8 80 27.5 169t58.5 175t101.5 162t154.5 129q88 53 183 64.5t183 11.5h39q18 0 37 -2l2 -43q0 -8 -4 -14.5t-17.5 -9.5t-40 -5t-69.5 -2q0 -4 1 -11t5 -7q86 -6 130 -37t44 -47q0 -18 -40 -28.5t-98 -22t-124.5 -28t-120.5 -46.5q-168 -117 -192 -383q45 4 91 12t89 8 q16 0 36.5 10.5t37.5 10.5q10 0 15 -5t16 -22q-49 -27 -95 -37q20 4 45 9.5t50 15.5q4 -10 6 -18.5t6 -12.5q2 0 6 2q8 4 12 4q23 -8 34 -28.5t11 -40.5q0 -10 -1 -19.5t-7 -15.5q-92 -16 -178 -33.5t-184 -32.5v-2q88 6 176 25.5t180 23.5q-10 -25 -52 -42t-75 -17t-33 16 q-49 -20 -98 -24l-98 -8v-17q49 8 96 15q41 4 84 12q-90 -20 -180 -33v-160q-6 -104 -6.5 -212.5t-6.5 -216t-24.5 -213t-61.5 -206.5q-18 -55 -44.5 -111t-54.5 -102.5t-53.5 -75t-43.5 -28.5q-8 0 -13 10q33 47 70 98.5t66 110.5q23 57 39 110.5t30 110.5 q-33 -121 -88 -226t-123 -191q-4 10 -10 14t-20 4l-37 -55q-41 -43 -66 -43q-16 0 -24.5 18.5t-8.5 48.5zM367 203l12 76q8 45 15 93t7 97q0 78 -10 158q-8 74 -12 145q2 -68 4 -133q4 -72 4 -141q0 -76 -5 -149t-15 -144v-2zM485 76q35 145 43 291q10 141 11 278 q-5 -137 -13 -276q-6 -141 -41 -293zM590 1151q18 -6 43 -6q29 0 58.5 6t56.5 12q-41 -4 -79 -8t-79 -4zM764 975q6 2 14 4q-8 -2 -14 -4z" />
<glyph unicode="g" horiz-adv-x="1280" d="M102 743v19q0 125 45.5 216t124 148.5t185 85t229.5 27.5q143 0 291 -39q-12 -4 -12 -14q0 -8 3 -15.5t3 -15.5v-4q-6 -10 -29 -10t-65.5 6t-120.5 16v-24q70 -8 119 -25.5t79.5 -38t44 -39t13.5 -30.5q0 -8 -9.5 -11.5t-19.5 -3.5q-23 0 -81 8.5t-146 8.5 q-84 0 -158 -10.5t-128 -39t-85 -80t-31 -133.5q0 -68 21.5 -129t53.5 -108t71 -74.5t75 -27.5q25 0 61 34.5t76 86t76.5 108.5t63.5 102l57 -16v4l-53 16l35 60l239 -74q0 -68 7.5 -138.5t16.5 -144t16.5 -150.5t7.5 -155q0 -104 -18.5 -210.5t-60.5 -203t-110.5 -178.5 t-171.5 -135q-55 -37 -142 -68.5t-171 -35.5h-25q-82 0 -137 17.5t-88 39t-46 41t-13 23.5q0 8 8 8q63 -47 137 -67.5t147 -20.5q125 0 232 49q102 49 184 123q-82 -72 -186 -119q-106 -47 -228 -47q-72 0 -140 20.5t-128 67.5q6 0 14.5 3t8.5 11l-17 15q-14 14 -33.5 36.5 t-35 53t-15.5 65.5t27 35q20 0 47 -26.5t63.5 -58.5t89 -58.5t124.5 -26.5q102 0 184 40t143 110q-59 -66 -138 -103t-179 -37q-61 0 -115.5 20.5t-87.5 55.5q35 -10 87 -22.5t114 -12.5q111 0 195.5 56.5t146.5 142.5l28 -4q47 82 66.5 175t19.5 196q0 70 -6 141.5 t-16 144.5l-10 -14q10 -72 15 -140.5t5 -134.5q0 -82 -16.5 -162.5t-50.5 -148.5q35 72 49 153t14 173q-10 53 -10 106.5t-4 106.5l-4 41q-14 -20 -43 -57t-68 -73t-87 -62.5t-101 -26.5l-52 -6q-109 0 -194.5 55t-147 140t-94.5 186.5t-33 195.5q-2 10 -2 16zM590 168 l14 -6q61 8 112.5 35.5t91.5 64.5t70.5 76t53.5 68l-4 24q-18 -27 -43.5 -59.5t-48.5 -61.5q-20 -20 -45 -43.5t-54.5 -43t-66.5 -35t-80 -19.5zM915 -219q35 74 56 162q22 86 22 176v8q0 47 -3 96t-7 99l-10 120l-10 -12q8 -80 15 -159.5t7 -159.5q0 -90 -18 -177 q-18 -82 -52 -153zM973 -399q82 94 117 213q37 123 47 243v66q0 109 -9.5 211t-21.5 203q8 -94 18.5 -187.5t10.5 -191.5q0 -68 -7.5 -142.5t-26 -148.5t-50.5 -143q-31 -66 -78 -123z" />
<glyph unicode="h" horiz-adv-x="1243" d="M127 55q0 16 4 32.5t6 27.5q16 98 25.5 186t15.5 186q0 193 -9 349.5t-9 308.5q0 129 12 231.5t12 212.5q0 78 -6 158l47 8q6 0 12.5 -7t10.5 -28.5t7 -59.5t3 -97h25q4 139 19 221t38 82q20 0 34.5 -44t24 -118t14.5 -168t5 -195v-258q41 45 103.5 82t137.5 37 q111 0 188 -54t128 -133t78.5 -168t40.5 -157q10 -41 19 -92t15.5 -104.5t9.5 -106.5t3 -98q0 -6 -1 -34t-5.5 -58.5t-12.5 -55t-22 -24.5q-4 0 -6 2q4 47 6 92t2 92q0 109 -15 215q-12 98 -36 199q20 -90 30 -178q12 -94 13 -189q0 -113 -13 -219q-20 -8 -29.5 -39 t-17.5 -65.5t-21.5 -62t-41.5 -27.5q-10 0 -17.5 13t-13.5 32.5t-9 43t-3 44.5q0 14 4 24t8 25q8 49 11 99t3 104q0 61 -6 137t-20.5 153.5t-37 150.5t-56 129t-78.5 90t-103 34q-45 0 -80.5 -38t-63.5 -96.5t-47.5 -129t-33.5 -134.5v-10q12 63 31.5 129t49.5 122t71 97 t96 54q49 0 88 -35t68.5 -91.5t51 -127t35 -140t19.5 -132t6 -103.5q0 -66 -6 -130.5t-16 -125.5q-10 88 -14.5 184.5t-14.5 190.5t-30.5 185t-63.5 171l18 6q-18 35 -33.5 51.5t-29 24.5t-29.5 15.5t-37 25.5h-31q-70 0 -125 -131t-102 -369l-6 -129q12 84 31.5 191.5 t47 203t65.5 160t89 64.5q23 0 53.5 -14.5t63.5 -57.5q-29 33 -57.5 49.5t-50.5 16.5l-15 -2q-41 0 -71.5 -51.5t-56 -132.5t-44 -184.5t-35 -206.5t-30 -198t-27.5 -161q-6 -16 -6 -25q0 -6 4 -18l-244 39v8q-14 0 -14 24zM141 72q4 -33 7.5 -38t9.5 -9l188 -31 q12 4 15.5 12t7.5 8l14 109l-33 -103l-6 -12q-35 2 -68 8q-29 4 -60.5 9.5t-55.5 9.5q-6 18 -6 26q0 2 1 4.5t1 4.5zM418 1012q18 27 41.5 52.5t52.5 44.5t65.5 31.5t84.5 12.5q92 0 164.5 -53t125.5 -131q-23 35 -48 67.5t-62 59.5q-41 29 -88 46t-99 17q-82 0 -141 -44 t-96 -97v-6zM1047 731l4 -14z" />
<glyph unicode="i" horiz-adv-x="667" d="M113 174q0 41 2 68.5t6 64.5l22 21q-2 10 -2 18v21q0 47 10.5 107.5t23.5 122.5t23.5 120.5t10.5 101.5l-25 6q-4 -49 -12 -111.5t-17.5 -129t-17.5 -131.5q-4 -35 -8 -66q4 57 10 123q10 94 21.5 187.5t22 183.5t20.5 166q0 31 15 66.5t22 74.5q12 -4 20 -4h14 q20 0 26.5 -9.5t6.5 -25.5v-10l19 -6q16 31 38.5 49t45.5 18q49 0 49 -104q0 -55 -11.5 -118t-11.5 -122v-27q0 -66 -14 -142.5t-31.5 -155t-32 -152.5t-14.5 -135q0 -14 2 -30.5t2 -31.5q0 -31 -11 -38t-28 -7q0 27 -2 66t-2 69q-4 -23 -4 -61.5t-4 -73.5h-31v-24 q-18 -33 -49 -33q-14 0 -32.5 8t-28.5 18q8 57 15 134t13 155t12.5 153t12.5 130q-10 -55 -18.5 -127t-16.5 -147.5t-16 -150.5t-15 -134q-31 20 -30 55zM125 338q2 23 4 45q-2 -25 -4 -45zM250 1628q0 20 17.5 40t41 34t46 24.5t32.5 14.5q8 0 6 9t6 9l37 -12 q-4 -10 -25.5 -33.5t-31.5 -34.5q14 10 33.5 31t29.5 31q10 -4 18.5 -8t12.5 -4l6 6q14 0 31.5 -6.5t32 -14.5t25 -18.5t10.5 -16.5q-35 -20 -64 -53t-59 -63q18 12 32.5 26.5t29.5 28.5t32.5 28.5t40.5 26.5q6 -8 11 -14t5 -12l-47 -48q0 4 -7 8.5t-11 4.5 q-6 -20 -20.5 -32.5t-29 -23t-28.5 -22.5t-21 -33v-4q0 -2 7 -2l102 96l-39 -39q-29 -29 -60.5 -58.5t-59 -52t-34.5 -22.5l-2 2q-14 4 -29.5 4t-31.5 2q0 16 -5 35t-5 29t10 10q0 6 -7 19.5t-15.5 31t-15.5 37t-7 39.5z" />
<glyph unicode="j" horiz-adv-x="692" d="M-287 -297q0 35 11.5 45t17.5 10l10 -2q0 -33 3 -72.5t12.5 -79.5t27.5 -75t47 -57q-27 23 -43 57q-16 35 -25.5 75t-12.5 78.5t-3 67.5h37v62q12 29 24.5 39t24.5 10q23 0 35.5 -19.5t26.5 -48.5l-2 -49q-2 -16 -2 -31q0 -133 53 -141q-18 6 -31 43q-12 37 -12 94 q0 31 6 60l47 -156q-2 0 6.5 2t14.5 8l18 -20q129 76 190.5 207t61.5 327q0 80 -6 166l-6 -4q0 -115 -7.5 -217t-31 -188.5t-68.5 -151.5q-43 -63 -112 -104q70 45 112 108q43 66 65.5 142.5t29 160.5t6.5 166q0 43 -1 85t-1 83q0 66 3 128t3 132q0 68 -1 135.5t-1 132.5 q8 20 17 60.5t20.5 80.5t21.5 69.5t18 29.5q16 0 33 -6t17 -33q0 -12 -1 -22.5t-1 -26.5h18q23 66 47.5 93.5t46.5 27.5q33 0 33 -84v-17q0 -162 -11.5 -352t-11.5 -375q0 -31 1 -63.5t1 -65.5q0 -88 -11 -202.5t-49 -228t-109.5 -212t-192.5 -153.5q-35 -16 -73 -30.5 t-85 -14.5q-84 0 -134 43t-77.5 97t-36 106.5t-8.5 70.5zM0 -422q29 4 55.5 20.5t53.5 34.5q37 27 65.5 68t49 88t33.5 98.5t17 102.5q-23 -147 -87 -253t-187 -159zM96 -532q111 51 184.5 144t114.5 202q-47 -102 -119.5 -197.5t-179.5 -148.5zM236 1593q0 16 14 40 t34.5 47.5t41 42t32.5 24.5q37 6 75 27.5t61 21.5q4 -4 9 -12t9 -12q-10 -10 -22.5 -15.5t-26.5 -15.5l55 18q8 -16 25 -24q29 -16 42 -48.5t25 -44.5q-39 0 -75.5 -19t-53.5 -36q25 12 53.5 27.5t75.5 15.5q0 -29 -37 -43l-18 19q-6 -14 -19.5 -20.5t-25.5 -11.5 t-22.5 -12.5t-12.5 -23.5l6 -6q27 35 86 55l-116 -104l-25 -6q-8 6 -30.5 18t-24.5 25h-2q-6 0 -28 5t-45.5 14t-41.5 23.5t-18 30.5zM397 1722q21 0 35 4q16 4 31 15q-14 -4 -31.5 -9.5t-34.5 -9.5z" />
<glyph unicode="k" horiz-adv-x="1208" d="M123 281q0 25 1 53t3 63l31 41q-2 29 -2 56v57q0 106 4 211.5t4 214.5v55q0 25 -2 47.5t-4 48t-6 56.5h-7q0 -35 1 -63.5t2.5 -56.5t1.5 -56v-62q0 -250 -19 -502q4 90 6 177.5t2 175.5q0 92 -2 178t-3 171t-3 173t-2 184q0 53 4 96t11.5 85t14.5 87.5t13 104.5l45 -2 q12 0 21.5 -9.5t9.5 -39.5q0 -10 -1 -20.5t-3 -24.5h20q16 61 42 95t48 34q29 0 40.5 -52.5t11.5 -150.5q0 -39 -1.5 -69.5t-3.5 -61.5t-3 -64.5t-1 -76.5q0 -53 2 -100.5t5.5 -92.5t5.5 -91t2 -97v-299q63 27 132.5 86t131 128.5t108.5 139.5t66 117q6 -8 16 -11l21 -4 q10 -2 18 -7t8 -17q0 -10 -5 -25.5t-19 -38.5l20 -14q33 45 66 72.5t55 27.5q31 0 31 -51q0 -68 -32 -134.5t-81 -124.5t-111.5 -109.5t-123.5 -88.5q111 -76 192.5 -179t128.5 -212q12 -20 30.5 -49t37 -59.5t32 -60t13.5 -50.5q0 -27 -8.5 -31t-18.5 -4q-29 82 -69 150 q-37 63 -74 125q35 -63 70 -125q37 -68 59 -150q-10 0 -18.5 -2t-14.5 -12q2 -10 4 -18q4 -18 10 -29q-8 -33 -20 -44t-27 -11q-16 0 -39.5 13t-31.5 21v21q-14 53 -43 110q-27 57 -62 115q33 -57 54 -117q23 -59 30 -114q-23 25 -42 58.5t-39.5 71.5t-42 76.5t-46.5 73.5 q12 12 19 13q-84 98 -182.5 182t-229.5 117v-35q59 -12 127 -43q-59 25 -123 33q-4 -59 -8 -116t-12 -110q0 -33 2 -74.5t2 -82.5q0 -115 -31 -115q-4 0 -12 4q2 33 2 63v199q-4 -63 -6 -127.5t-11 -126.5q-23 -14 -29.5 -31.5t-12 -32t-14.5 -23.5t-34 -9q-23 0 -38 19.5 t-29 47.5l6 21q10 59 13 121.5t3 126.5q0 117 5 223t14 217q0 51 -1 100.5t-1 96.5l-21 -441q-10 -113 -10 -228.5t-21 -207.5q-10 20 -15 42t-5 52q0 39 -1 71t-1 67zM498 567q75 -29 145 -86q72 -59 133 -133l-18 29q-45 72 -119 121q-70 47 -141 69zM537 489 q51 -25 103 -64.5t95 -102.5q-39 45 -94 93t-104 74zM707 647q45 -39 92 -84q49 -47 92 -98q-35 63 -86 104q-47 39 -98 78z" />
<glyph unicode="l" horiz-adv-x="710" d="M102 449q0 14 1 36.5t3 44.5l5 48q2 25 4 43q-2 -31 -3 -77t-1 -69v-82q0 -16 1 -34.5t3 -34.5q-8 33 -10.5 64.5t-2.5 60.5zM115 623v6q2 2 2 4q0 -8 -2 -10zM117 469l35 358q10 92 14 185l-6 4q-16 -96 -27 -185q-10 -86 -16 -169v53q12 94 22.5 185t26.5 185.5 t41.5 196.5t68.5 219q57 78 68 154q6 0 12 -2t25 -2q12 0 21.5 -5.5t9.5 -21.5q0 -18 -13 -55q4 0 12.5 -3t12.5 -3q29 49 52.5 83.5t45.5 34.5q14 0 25.5 -17t11.5 -56q-4 -74 -23.5 -139.5t-42 -127t-44 -125t-31.5 -133.5q-12 -80 -24.5 -162.5t-23 -164.5t-19.5 -158 t-13 -141q0 -59 18 -123q10 -16 18.5 -23.5t28.5 -7.5q25 0 54.5 6t52.5 6q14 0 20.5 -4t10.5 -14q-29 -16 -62 -24.5t-61 -8.5h-29h-14q23 -4 57 -4q53 0 109 25q0 -18 12 -31q6 2 28.5 14.5t39.5 12.5q49 0 49 -41q0 -6 -4.5 -18.5t-20.5 -47.5q-12 0 -24 -12 q-43 -16 -89.5 -27.5t-95.5 -11.5q-139 0 -208.5 81t-69.5 234q0 74 6 148q6 72 8 133q-6 -63 -14 -127q-10 -68 -11 -141q0 -37 7.5 -94.5t36 -112t88 -94t163.5 -39.5q49 0 95.5 11t89.5 28q-29 -35 -77 -55.5t-114 -20.5q-84 0 -162.5 34.5t-119.5 116.5l12 23 q-37 66 -41 118t-8 103zM295 428q0 -14 2 -31v15q0 10 2 22.5t4 22.5q0 47 6 92t10 92q-10 -47 -15 -92t-9 -92v-29z" />
<glyph unicode="m" horiz-adv-x="2146" d="M113 1096l47 10q6 0 13 -11.5t12 -42t10.5 -87t9.5 -146.5q2 0 6 2q8 4 12 4q0 14 -1 28.5t-1 29.5q0 176 23.5 271t40.5 95q12 0 24.5 -53t26.5 -168q35 55 80 106.5t101 89.5t122 60.5t143 22.5q68 0 119 -29t91 -75t67.5 -104.5t48 -116.5t34 -112.5t23.5 -91.5 q0 -4 2 -9t4 -9q25 66 62 150.5t92 160.5t130 128t173 52q96 0 164 -51t114 -131t73.5 -177t42 -190.5t18.5 -171t4 -118.5q0 -66 -5 -96.5t-28 -30.5q-4 82 -7 166t-12.5 169t-25.5 166q-16 80 -43 158q51 -162 59 -323q10 -164 16 -324q-14 14 -22 14q-6 0 -8 -8v-61 q0 -27 1 -55.5t5 -49.5q-4 -84 -7 -119.5t-15 -46.5q-16 0 -28.5 18.5t-24 47.5t-21.5 63.5t-20 67.5v55q0 90 -1.5 188.5t-8.5 191.5t-22.5 177t-41 148.5t-65.5 101.5t-97 37q-47 0 -86 -25q-23 -14 -45 -36q23 20 47 34q39 25 84 25h8q51 0 87 -40t59.5 -105.5t36 -149.5 t19.5 -174t9 -179t4 -163q-12 57 -21 136t-18.5 165t-23 170t-33.5 150.5t-51 107.5t-76 41q-18 0 -32.5 -3t-37.5 -22l-20 11q-70 -61 -117 -164t-79.5 -220.5t-55.5 -240.5t-43 -227v-78q33 162 60.5 318.5t80.5 303.5q-41 -127 -63.5 -262t-50.5 -276q0 -14 -6.5 -39 t-20.5 -74l-225 23l-15 24q0 68 -9 137.5t-9 135.5v55q-10 80 -24.5 187.5t-37 203.5t-55.5 164t-82 68q-72 0 -147.5 -67t-126.5 -194q-25 -72 -34 -151.5t-15 -167.5t-11.5 -181t-19.5 -194q-4 -10 -7 -24.5t-5 -24.5h-252v166q-2 20 -4 49t-5 58.5t-5.5 58.5t-4.5 49 q0 166 -13 332t-17 338zM696 1047q6 2 11 2h2q0 -2 -7 -9q55 18 86 19q39 -14 70 -63.5t52.5 -118t37 -148.5t23.5 -152.5t12 -130t4 -81.5q6 -61 11.5 -121t5.5 -119l16 76q-6 55 -11 141t-13.5 182.5t-23 194.5t-40 177t-63.5 128t-95 49q-18 0 -38.5 -8t-39.5 -18z M1020 498q4 -33 5 -64t3 -57l6 -98l2 10q-2 29 -2 55v51zM1192 752q0 -2 4 -19q4 -14 6 -18q6 20 26.5 66t45 98.5t47.5 97.5q8 18 14 33q-6 -12 -16 -27q-23 -41 -49.5 -85t-49 -85t-28.5 -61zM1227 317l4 -32q27 147 61 297q33 131 84 247q-2 -6 -4 -10q-10 -20 -18 -43 q-41 -104 -72 -220t-55 -239zM1339 1016q5 6 7 12q-4 -4 -7 -12zM1389 731q10 29 18 55q10 27 16 37q0 -4 -4 -16q-4 -14 -16 -43zM1585 1208h2q33 -8 62 -8h43q-37 10 -70 10h-23q-14 0 -14 -2zM1784 1153q24 -16 49 -39q-10 12 -27 25q-12 8 -22 14z" />
<glyph unicode="n" horiz-adv-x="1265" d="M123 131q0 10 6 24.5t6 30.5q6 49 8 71t2 38q0 86 -5 185.5t-11 191.5q0 29 -1 67.5t-5 61.5q6 72 10 141.5t4 140.5v52q0 27 -2 53q6 -6 12 -6q8 0 17.5 6t17.5 6q14 0 23.5 -30.5t9.5 -135.5h18q10 115 32 182.5t44 67.5q10 0 33 -44t23 -138l22 37q23 27 50.5 55.5 t62.5 51t78 37.5t98 15q106 0 185 -48t132.5 -125t87 -174t52 -196.5t24.5 -191.5t6 -158q0 -59 -7 -70.5t-26 -13.5q-4 158 -20 322t-78 317q55 -162 70.5 -318.5t15.5 -313.5q-12 6 -22 6q-8 0 -15 -6q0 -16 2 -35q2 -16 3 -32.5t1 -31.5q-12 -47 -24 -67.5t-23 -20.5 q-12 0 -20 11.5t-15.5 27.5t-14.5 35.5t-19 38.5q4 35 6 56.5t2 35.5q0 55 -2 133t-11.5 163t-28.5 170t-53 151.5t-85 108.5t-123 42q-49 0 -87 -33t-65.5 -84t-48 -111.5t-33.5 -115.5q18 57 38 116.5t47.5 108.5t64.5 81t86 32q63 0 109.5 -35t78 -90t51 -126 t29.5 -143.5t13.5 -141t3.5 -117.5q0 -39 -1 -78t-4 -80q-18 78 -27 163t-19.5 168t-26 159.5t-43.5 142.5l14 20q-20 47 -46 72.5t-50.5 38t-45 14.5t-26.5 2q-51 0 -91 -37t-69.5 -99.5t-52 -144t-39 -172t-29 -181.5t-20.5 -171h19q10 70 21 154t24.5 171t32 169 t44 147.5t60.5 106.5q33 39 80 45q-45 -10 -76 -58q-33 -49 -57.5 -120.5t-44 -156.5t-35.5 -163l-41 -299q-8 -29 -13 -51l-8 -43q-4 -20 -8 -44t-10 -54l-6 -25h-13l-206 70q-10 2 -15.5 6t-11.5 10zM371 1024q29 59 80 121q49 57 131 86q-27 -8 -52 -17q-28 -9 -51 -32 q-41 -35 -64.5 -75t-43.5 -81v-2zM688 1059q35 -2 61.5 -15.5t51.5 -46.5l-21 19q-16 12 -37.5 19t-52.5 20zM696 1251q66 -16 123.5 -35.5t108.5 -76.5q-35 47 -91.5 73.5t-111.5 36.5q-10 2 -29 2zM932 1135q29 -35 53.5 -80t42.5 -80q-20 47 -38.5 86t-57.5 74z" />
<glyph unicode="o" horiz-adv-x="1312" d="M82 496q0 104 27.5 204.5t85 184.5t147.5 144.5t217 84.5l-59 14q-43 10 -61.5 24.5t-18.5 25.5q0 16 36 35.5t81 19.5q2 -10 22 -10h4q12 0 17 -2q106 -33 211.5 -95.5t190.5 -149.5t137 -197.5t52 -237.5q0 -111 -43 -213.5t-118 -177.5q78 68 124 169t46 218 q0 131 -55.5 244.5t-141.5 203.5t-191.5 154.5t-205.5 99.5q78 0 158.5 -35t154.5 -91t136.5 -129t105.5 -148l-15 -21q41 -61 62.5 -133t21.5 -147q0 -145 -62.5 -255t-157.5 -182.5t-208.5 -109.5t-214.5 -37q-57 0 -115.5 12t-117.5 41v-12q57 -33 117.5 -45.5 t119.5 -12.5q147 0 290 64.5t241 181.5q-94 -121 -234.5 -188.5t-292.5 -67.5q-156 0 -252 60.5t-150 148.5t-72.5 186.5t-18.5 176.5zM336 465q0 -141 63.5 -213t175.5 -72q72 0 147 24.5t135.5 69.5t98 111t37.5 147q0 61 -21.5 123t-59.5 118t-90 105.5t-113 84.5 q-59 33 -97.5 50t-54.5 34q-16 -8 -46 -19.5t-79 -34.5l12 -18q55 20 107 20q51 0 78.5 -15t27.5 -32q0 -10 -23.5 -22.5t-59 -34t-77.5 -54t-78 -82.5t-59.5 -122t-23.5 -168zM553 1096q0 -4 5 -11.5t9 -11.5l15 31l-19 8q-2 -4 -6 -8t-4 -8zM582 1071q94 -31 180 -92 q74 -55 135 -121q-59 70 -129 125q-80 66 -178 102zM893 256q37 25 62.5 59.5t42 69.5t24.5 64q6 27 10 43q-22 -53 -53 -119t-86 -117zM897 858q6 -8 12 -14q-6 8 -12 14zM1106 186q-2 0 10 21.5t29.5 51.5t34.5 63q14 25 20 43q-29 -88 -84 -168q-2 -4 -6 -9q-2 -2 -4 -2z M1200 365q2 4 2 8q0 -4 -2 -8zM1202 373q0 2 2 4q-2 -2 -2 -4zM1202 688q10 -37 19 -74q10 -41 10 -86q0 -33 -4 -64.5t-15 -57.5q14 51 15 114q0 47 -8 92q-6 39 -17 76z" />
<glyph unicode="p" horiz-adv-x="1345" d="M61 958q0 20 37 36t95.5 25t128 13t135.5 4q72 0 154.5 -4t166.5 -20.5t163 -50t142.5 -94t105.5 -151.5t54 -222q0 -111 -48 -181.5t-115.5 -113.5t-140.5 -61.5t-120 -24.5q-47 -10 -108.5 -23.5t-104.5 -13.5q-47 0 -55 10t-8 27q92 4 184 15t184 40q-92 -23 -184 -34 t-184 -15q0 12 -2 25.5t-13 13.5q-20 0 -31.5 -65.5t-16.5 -157t-6 -187.5t-1 -160q0 -29 3 -60.5t3 -53.5q0 -20 -6 -34.5t-35 -14.5v258q-4 -66 -5 -129.5t-1 -128.5h-37v-17q0 -18 6 -26q-23 -39 -51 -39q-23 0 -34 12t-31 33l6 18q4 115 6 226.5t2 236.5q0 53 -2 105.5 t-6 101.5v-226q0 -113 -3 -224t-16 -220q-10 18 -18 37.5t-12 42.5q4 55 5 101t1 102l24 12q-6 43 -8 87t-2 87q0 47 1 91t1 91q0 57 -3 113.5t-13 114.5h-6q4 -86 7 -170t3 -168q0 -37 -2 -74l-2 -53q-4 197 -15 385q-8 201 -28 411l8 170q-23 2 -47 2h-47l-6 48 q0 10 14 18t57 8h21v25q-68 8 -106 28.5t-38 42.5zM283 573q4 4 8 35t7 67t6 67.5t7 37.5l-26 2zM442 782q16 -88 19.5 -191.5t13.5 -201.5l14 -129h29q72 0 165 8t175 31t138.5 63.5t56.5 106.5v16q0 20 -3 45t-18 48q2 -10 10.5 -41t8.5 -52q0 -63 -44 -103t-111 -63.5 t-145.5 -33t-150.5 -9.5h-41q-20 0 -41 3q29 23 75 31.5t97 15t100.5 12.5t83.5 20l13 -24q72 35 101.5 68.5t29.5 93.5q0 94 -52.5 165.5t-140.5 96.5l-6 -13q76 -29 131.5 -94t55.5 -157q0 -49 -23 -78q-20 -25 -65 -45q37 16 55 41q23 29 31 63q0 86 -41 145.5t-115 95.5 t-177.5 51t-228.5 15zM907 367l11 4z" />
<glyph unicode="q" horiz-adv-x="1253" d="M82 535q0 131 59.5 228t156.5 161.5t221 96.5t253 32h92q66 -18 126.5 -30.5t125.5 -31.5l-6 -33q0 -10 -6 -18t-31 -8q-12 0 -30.5 2t-43.5 8q0 -12 -6 -18q66 -27 99.5 -55.5t33.5 -51.5q0 -20 -26 -26q10 -20 10 -52q-4 -57 -10 -125.5t-6 -146.5q0 -111 20.5 -229.5 t20.5 -241.5q0 -98 8 -197.5t8 -197.5q0 -33 -3 -64t-3 -61q0 -25 2 -53.5t2 -53.5q0 -71 -26 -71h-1q-4 0 -12 4q2 23 2 47v45q0 23 -2 45v39q-2 -43 -6 -86q-4 -45 -6 -90l-19 -9q-12 -10 -22 -26.5t-39 -16.5q-20 0 -39 5.5t-29 21.5q10 53 13.5 95t3.5 83q0 53 -2 109.5 t-2 118.5v38q0 63 -8.5 130t-16.5 131q6 -109 14.5 -216.5t8.5 -214.5q0 -66 -5.5 -130t-17.5 -126q-10 18 -17.5 38t-7.5 42q4 55 5.5 105.5t1.5 105.5l18 4q-16 98 -19.5 193.5t-9.5 193.5h-14q0 -10 4 -63t9 -115.5t8.5 -117t3.5 -64.5q-10 92 -17.5 181t-17.5 179 q-82 8 -147.5 17.5t-149.5 28.5l-25 22q-80 12 -162 43t-147.5 86t-106.5 138t-41 198q0 94 31 185t101 161l-7 6q-78 -70 -110.5 -164t-32.5 -188q0 -90 31 -165t85 -134t124 -102q68 -39 141 -64q-68 20 -135 53q-70 37 -126 94.5t-91 141.5t-35 201zM133 444 q10 -72 41 -129q-31 57 -41 129zM180 305l2 -2q43 -68 105.5 -116t141.5 -79.5t162 -52t165 -33t151 -20.5l-6 18q-57 4 -133 12.5t-158 26t-162.5 46t-147.5 75.5t-112 115q-4 6 -8 10zM307 401q12 -38 39 -69q31 -33 74 -58.5t96 -44.5q45 -14 92 -22q-45 8 -88 22 q-51 18 -94 44t-76 59q-29 31 -43 69zM330 487q0 -66 45 -114.5t120.5 -82.5t174 -53.5t207.5 -23.5q-16 94 -23.5 203.5t-7.5 218.5q16 41 26.5 88t18.5 88q-68 6 -137 6q-219 -14 -317.5 -93t-106.5 -237zM469 45q4 0 6 -2q-2 0 -6 2zM662 197q49 -10 102 -16.5t106 -14.5 l-2 8q-51 4 -104 9.5t-102 13.5zM918 621h18q4 10 15.5 35.5t23.5 53t24.5 50t18.5 28.5h-29q-12 0 -28 3q4 -8 4 -19q0 -4 -7.5 -25.5t-15.5 -47t-15 -48t-9 -30.5z" />
<glyph unicode="r" horiz-adv-x="919" d="M102 1096q14 6 26.5 11t23.5 5q10 0 22 -23.5t27 -97.5q4 0 12 3t12 3q-2 35 -10 75t-16.5 77t-15.5 66.5t-7 48.5q0 4 1 10t9 6q10 0 26.5 -22.5t35 -57.5t36 -75t31.5 -74q55 104 126 158.5t186 54.5q84 0 137 -19.5t83 -43t40 -44.5l12 -20q0 -12 -12 -17 q-53 51 -121 78t-139 27q-70 0 -105 -19q-33 -16 -69 -41q39 25 71 39q35 14 101 15q72 0 137 -28t112 -71q-10 -4 -17 -9t-7 -15q10 0 22.5 -13.5t22.5 -32t17.5 -38t7.5 -31.5q0 -35 -27 -35q-20 0 -49 15q-6 2 -25.5 22.5t-48.5 42t-65.5 39.5t-81.5 18q-37 0 -65 -15 t-50.5 -41t-40.5 -58l-27 -49q31 55 68 100q41 53 102 53q53 0 98.5 -23.5t73.5 -58.5q-35 14 -82 28.5t-90 14.5q-23 0 -39 -10t-27.5 -25.5t-20.5 -34t-19 -34.5l-27 -4q-35 -59 -56.5 -138t-21.5 -165q0 -51 5.5 -92.5t15.5 -84.5l24 -63l-4 59q-4 70 -8 124.5t-4 119.5 q4 59 16 113q10 45 31 84q-25 -49 -33 -113q-10 -70 -10 -147q0 -61 6 -116.5t15.5 -111t19.5 -114t16 -127.5l7 -39l12 -117l-51 -21q-20 -4 -45 -4h-60q-53 0 -74.5 -12t-25.5 -12l-8 37v37l-11 192q-4 55 -22 118.5t-29 129.5q-6 43 -10 82l-8 80q-4 41 -9 84t-16 92 q0 12 1 24.5t1 24.5q0 63 -10 124.5t-29 121.5zM475 883l6 10z" />
<glyph unicode="s" horiz-adv-x="1316" d="M92 889q0 88 36 162.5t95.5 131t136 89.5t158.5 35q78 0 148.5 -21.5t134 -55.5t121 -75t106.5 -82l-41 -41q-14 0 -43 17.5t-88 60.5l-12 -18q74 -59 107.5 -110.5t33.5 -80.5q-4 -16 -20 -16t-65.5 26.5t-112 59.5t-132 59.5t-127.5 26.5q-33 0 -65.5 -12.5t-59 -34 t-44 -52t-17.5 -67.5q0 -59 55.5 -79.5t145.5 -20.5q18 0 39.5 1t40.5 5q47 0 62 3t30 3q88 0 176 -12.5t157.5 -53.5t112.5 -116.5t43 -202.5q0 -88 -29.5 -175t-89 -156t-147.5 -111t-207 -42q-72 0 -169 28t-184 66t-147.5 78.5t-60.5 69.5q0 8 10 12q125 -92 254 -151 q127 -55 260 -62q-66 4 -131 23q-68 20 -134.5 50t-126.5 68t-116 77l31 26q-6 2 -22.5 14.5t-32 31t-27.5 39t-12 38.5q0 20 8 26.5t19 6.5q10 0 42.5 -14.5t79.5 -30.5q33 -10 79 -37t103.5 -55.5t126 -51t146.5 -22.5h23q12 0 28 4l23 -16q80 25 131 93t51 185 q0 84 -40 116t-146 32q-66 0 -136.5 -9.5t-148.5 -9.5q-35 0 -72 3t-75 13v-12q82 -20 161 -20q78 0 148.5 9t136.5 9q55 0 87 -11t48.5 -29.5t21.5 -44t5 -56.5q0 -96 -51 -164q-49 -63 -117 -80q76 27 119 92q45 70 45 156q0 61 -32 94t-110 33q-63 0 -143 -8t-170 -8 q-55 0 -128 14t-138.5 53t-110.5 107.5t-45 179.5zM401 227q63 -43 141.5 -76.5t180.5 -33.5q137 0 218 84t81 225v20q-10 66 -44 108t-104 46q43 -8 71 -26.5t43.5 -44t21.5 -56.5t6 -63q-8 -135 -86 -212t-205 -77q-72 0 -159 29.5t-165 76.5zM799 174h4h-4zM825 -14 q39 6 81 17t79 38q51 33 82 80t53 98q-43 -86 -117.5 -151.5t-177.5 -81.5zM1122 225q18 45 36 95.5t22 105.5q0 23 -9 43q-6 16 -10 35l2 -27q2 -16 2 -45q0 -55 -12 -106.5t-31 -100.5zM1161 504v6v-6z" />
<glyph unicode="t" horiz-adv-x="976" d="M61 1130q0 53 76 54q29 0 59.5 -4t63.5 -6q8 45 14.5 80.5t12.5 69.5t14 67.5t21 70.5q18 41 28 89t15 96l43 -2q10 0 17 -6.5t7 -28.5q0 -18 -6 -49l25 -7q16 55 39.5 90t46.5 35q35 0 43 -88v-37q0 -53 -7.5 -99t-17.5 -91t-20.5 -92t-18.5 -103q45 -6 88 -6q20 0 41 1 t41 1t43 16.5t41 16.5q16 0 24.5 -10t8.5 -23q-37 -10 -73 -21t-68 -22q33 4 69.5 15.5t77.5 21.5q0 -10 1 -18t5 -19q4 0 10 2q12 4 15 4q20 -10 26 -25.5t6 -33.5q0 -14 -4 -25.5t-4 -19.5q-18 0 -50 -6t-63.5 -14.5t-57 -16.5t-31.5 -12q53 8 98 19.5t98 11.5 q-10 -18 -26.5 -28.5t-36 -16t-42 -8.5t-46.5 -9l-15 19q-39 -14 -59.5 -17.5t-42.5 -3.5q-25 0 -50.5 1t-56.5 1q0 -10 -2 -16q47 0 80 1t80 7q-45 -8 -79 -12t-81 -4q-8 -47 -14 -92.5t-6 -88.5q0 -25 2 -57.5t5 -66t5 -63.5t2 -44v-123q10 -41 59.5 -61.5t141.5 -20.5h65 q35 0 48.5 -7t13.5 -20q0 -10 -16.5 -11t-32.5 -1q-59 0 -125 8q-61 8 -121 19q59 -14 125 -27q68 -10 131 -10h18q8 0 19 2q0 -10 1 -18.5t5 -18.5l16 4q6 2 14.5 3t12.5 5q65 -6 65 -44q0 -24 -12 -38t-30.5 -22t-41 -11t-43.5 -3q-72 0 -140 9t-134 19 q57 -20 145.5 -32.5t178.5 -12.5q-23 -14 -53.5 -22t-63.5 -8l-148 18q-29 4 -44 8t-29.5 9t-31.5 11.5t-48 14.5v23q-53 14 -86 48.5t-51.5 75.5t-24.5 83t-6 75q0 35 1 64.5t1 60.5q0 23 -1 57.5t-3 73.5t-3 80t-1 78q0 23 1 43t3 37h-21q-2 -14 -2 -33v-37 q0 -59 2 -117.5t3 -107.5t3.5 -85t2.5 -52v-82v-17q-6 55 -13 158q-6 119 -6 262v37q0 23 1 43t5 31l-69 4q-23 14 -45.5 22.5t-40.5 8.5v40q0 12 3 21.5t19 9.5q4 0 21 -4v25q-23 12 -37.5 33.5t-14.5 43.5zM238 395l2 -14zM260 752q0 -137 9.5 -249t27.5 -173 q0 -18 -1 -24.5t-1 -10.5t5.5 -10.5t21.5 -16.5q-29 55 -31 108.5t-6 100.5l-19 311zM428 434q0 -53 6 -82q6 -25 25 -41q-10 12 -15 27q-2 16 -6 41q-4 16 -4 35v100q-2 -20 -4 -39.5t-2 -40.5zM459 311q2 0 4 -2q-2 2 -4 2z" />
<glyph unicode="u" horiz-adv-x="1341" d="M102 928q18 74 28.5 147.5t14.5 147.5q6 0 14.5 2t16.5 2q14 0 25.5 -16.5t11.5 -69.5v-19q0 -8 -2 -18h25q16 86 38.5 131t44.5 45q16 0 29.5 -46t13.5 -144q0 -72 -4 -146t-4 -151q0 -121 11.5 -219.5t44 -168t93 -107.5t156.5 -38q80 0 133.5 49t90.5 131t62.5 189.5 t47.5 224.5q4 33 6 65.5t2 67.5v64q0 59 6.5 100t34.5 47q0 -104 -6 -207q-4 -98 -16 -196q14 96 22 192q8 100 13 205q12 -8 20 -8t17 8v74q10 37 20 52t23 15q12 0 24 -12t25 -31l18 -43l-6 -37q-10 -100 -12 -215q-2 -113 -17 -227q16 113 27 221q10 113 20 221 q10 -33 18 -69.5t7 -77.5q-10 -102 -18.5 -196.5t-22.5 -196.5l-27 -6q-10 -94 -42.5 -205t-95 -205t-161 -156.5t-235.5 -62.5q-45 0 -95 7t-97.5 22.5t-90.5 40t-73 61.5l2 -4v-2l-2 -2l-7 2q12 -18 27 -33q-37 33 -68 76q-51 70 -81 166q-18 57 -28.5 116.5t-15 126 t-5.5 144.5t-1 172zM301 127q22 -21 47 -37q-25 16 -47 37zM348 90l8 -4q49 -27 101.5 -42t98.5 -21.5t75 -6.5q143 0 243.5 63.5t165 159t99.5 203.5q33 102 49 189q-14 -86 -45 -191q-35 -111 -99.5 -207t-163 -161.5t-237.5 -65.5q-78 0 -153.5 20.5t-141.5 63.5zM737 70 q86 18 154 71q70 55 119 129t81 158t50 162q6 35 10 67l8 58q-12 -90 -41 -191q-29 -104 -80 -197.5t-129 -164.5q-74 -68 -172 -92zM825 287q37 31 65 71.5t48 87.5q-23 -45 -50.5 -86t-62.5 -73zM1159 715q0 4 2 10q-2 -6 -2 -10zM1188 631l2 14z" />
<glyph unicode="v" horiz-adv-x="1298" d="M41 1024q14 4 23.5 15.5t23.5 11.5q10 0 19.5 -12.5t16.5 -28t13 -31.5t8 -23l25 7q-8 33 -13 64.5t-5 64.5q0 12 3 37.5t23 25.5q31 0 68 -56.5t72.5 -144.5t70.5 -193.5t63.5 -203.5t50 -176t29.5 -111q53 68 94.5 141.5t81.5 148.5t84 147.5t103 138.5q14 16 44 53 t63.5 75t66.5 66.5t53 28.5q10 0 19 -14q-78 -78 -155 -156t-134 -176q59 94 136 171t159 148l18 -24q12 18 45 40.5t56 22.5q16 0 24 -10t8 -27q0 -14 -4 -36.5t-12 -32.5q-10 -14 -25 -25q-68 -61 -128 -113.5t-113 -127.5l14 14q55 66 111.5 117t128.5 98 q-39 -66 -89.5 -112t-101.5 -103q-25 -29 -42 -62.5t-44 -60.5l-18 6q-39 -84 -81 -171t-91 -170t-109.5 -156.5t-136.5 -128.5q-6 -12 -25.5 -21.5t-29.5 -15.5l-129 57q-14 47 -31.5 100.5t-34.5 100.5l-10 -2l55 -199q2 -2 7.5 -4t20.5 -9t47 -20.5t87 -36.5 q82 49 139 107q55 55 107 131q-23 -39 -47 -72q-25 -35 -53.5 -65.5t-63.5 -58t-80 -52.5l-172 78q-47 184 -98 357t-107 350q-27 82 -45 160.5t-53 158.5zM592 279q74 102 133 215q61 117 127 229q-72 -111 -131 -225q-59 -113 -129 -219zM631 78q98 111 168.5 233.5 t126.5 251.5v4q-35 -61 -69 -125.5t-68.5 -127t-73.5 -123t-84 -113.5zM760 168q2 4 6 8q-4 -4 -6 -8zM770 182q33 53 61 109q2 2 5 4q-2 -2 -2 -4q-29 -56 -64 -109zM838 301q4 6 6 12q-2 -6 -6 -12zM846 315l16 31zM862 346q9 17 17 33q-8 -16 -17 -33zM936 586 q18 27 43 52t29 58q-20 -29 -38 -56.5t-34 -53.5z" />
<glyph unicode="w" horiz-adv-x="1523" d="M20 932l9 -4q10 4 19 12t18 8q12 0 22 -21.5t17.5 -49t12.5 -53t7 -33.5l25 6q-4 45 -8.5 89t-4.5 89v20q0 14 3 30.5t8.5 29t15.5 12.5q25 0 55.5 -67.5t63 -165t64.5 -204t59 -186.5q6 -20 17 -47.5t21.5 -54.5t19.5 -48.5t11 -29.5q6 31 20.5 85t30 114.5t30.5 115 t26 83.5q16 2 30.5 3t26.5 1q41 0 73.5 -9.5t84.5 -29.5q14 -31 22 -78t13.5 -100.5t6.5 -108.5t1 -102v-82q84 123 146.5 251t123.5 261q6 14 20.5 49t34 78t41 91t42 87t38 64.5t27.5 25.5l12 -6q-33 -76 -64.5 -145.5t-63.5 -137t-62.5 -138.5t-61.5 -147l258 555l21 -18 l10 6q4 14 15.5 41t26.5 53.5t32.5 47t36.5 20.5q8 0 14 -8t9 -20.5t5 -24t2 -17.5l-6 -61q-45 -86 -106.5 -230.5t-135.5 -304.5q59 119 115.5 236t120.5 244q-20 -88 -48 -165t-61.5 -148.5t-70.5 -145.5t-74 -156l-35 -20q-35 -84 -72.5 -169t-90 -161t-122 -137.5 t-163.5 -98.5q-31 18 -64 41t-65 37q0 2 -1 4t-1 7q0 16 3 52t7 72.5t7 66.5t3 36l-12 -12q0 -14 -3 -42t-8.5 -58.5t-8.5 -60.5t-3 -48v-11l158 -96q59 6 125.5 69.5t128 149.5t110.5 174q43 76 68 125q-29 -61 -70 -141q-45 -88 -101 -170t-121.5 -142.5t-137.5 -72.5 l-162 94q-4 8 -4 19q0 33 10.5 90t10.5 96v16q-10 -10 -31 -38.5t-46.5 -58.5t-51 -52.5t-41.5 -22.5q-35 23 -66 48.5t-63 50.5q-14 63 -42 126.5t-58.5 126t-57.5 126t-37 131.5q-16 98 -50 196.5t-59 196.5zM373 43l2 -2q4 2 14 13.5t20.5 24.5t18.5 25.5t12 16.5l-4 2 q-6 0 -15 -11.5t-19.5 -24.5t-18.5 -26.5t-10 -17.5zM500 195q2 5 12 34q10 33 23.5 75t29 89t28.5 89t21.5 70t8.5 32v2l-23 -17h-8q-10 -43 -24.5 -91t-29 -97t-25.5 -97t-13 -89zM649 -98q0 -10 11.5 -20.5t26.5 -19.5t32.5 -17.5t28.5 -14.5l2 4q57 8 117.5 63.5 t113.5 126t95 143.5t65 120l35 75q-43 -86 -89 -165q-49 -86 -100 -156t-104.5 -119t-104.5 -65l-37 -17l-84 58q0 12 3.5 37.5t6.5 54t6 55.5t3 45q-2 -16 -6 -44t-9.5 -55.5t-8.5 -52t-3 -36.5zM670 133q0 -2 2 -6q0 4 -2 6zM670 145v7q2 6 2 12h-2v-19zM705 -6l20 -4 l14 110zM745 -16q23 -4 45.5 -10.5t45.5 -6.5h8q-31 18 -70 19zM834 78q78 86 133 191.5t102 209.5q-51 -104 -104.5 -206.5t-130.5 -188.5v-6zM1198 313q4 9 8 17q-4 -8 -8 -17z" />
<glyph unicode="x" horiz-adv-x="1163" d="M0 1118l49 33q10 0 21.5 -11.5t27.5 -39.5l19 18q-16 39 -17 68q0 61 45 61q20 0 54 -30.5t77 -75.5t94.5 -93.5t108.5 -82.5l115 -99l125 209q16 8 37.5 25.5t43 37t44 41t41.5 38.5q4 -16 20.5 -24.5t16.5 -25.5q0 -18 -37 -49q12 -12 18 -12q39 20 74 20q27 0 43 -11 t16 -34q0 -27 -30.5 -67.5t-73.5 -90t-88 -103.5t-72 -107q37 -53 93.5 -117t108.5 -134.5t90 -146t38 -155.5q0 -33 -11.5 -38t-21.5 -5q-4 37 -10 73.5t-21 73.5l-18 37q-4 2 -12 10l24 -47q14 -37 19.5 -70.5t5.5 -70.5q-10 0 -18.5 -1t-12.5 -5v-37q-16 -39 -43 -39 q-18 0 -37.5 14.5t-30.5 24.5v18q2 10 3 17v18q0 45 -28 106.5t-69 121t-86 111.5t-78 83l-2 -4q43 -51 87 -103.5t80 -104.5t59.5 -105.5t23.5 -104.5v-18q0 -6 -2 -17q-18 12 -25.5 29.5t-10.5 33t-4 26t-9 10.5q-12 29 -22.5 46t-26.5 46l12 24q-51 49 -93 102.5 t-89 112.5l-8 -8q47 -57 80 -100q33 -41 43 -58q-6 10 -35 39q-31 33 -94 111q-78 -86 -140.5 -171t-118.5 -169q-14 -10 -22 -35.5t-16.5 -52.5t-19.5 -46.5t-32 -19.5q-8 0 -20 13q35 53 52.5 101t21.5 58q-29 -29 -41.5 -70.5t-38.5 -82.5q-4 4 -12.5 11t-18.5 7l-18 -37 q-8 -4 -21 -4q-14 0 -25.5 11.5t-19.5 26t-13 26.5t-7 14l6 6q10 10 24.5 39t36 70t50 90t67.5 102q41 55 83 115.5t83 112.5q-80 -90 -151.5 -193.5t-131.5 -206.5q-18 -41 -36.5 -71.5t-37.5 -44.5q-4 6 -4 24q0 14 9.5 41t25 57.5t34.5 62.5t40 60l18 -6q47 94 110.5 170 t123.5 154l-15 10q-47 -59 -93 -120.5t-91 -127.5q43 66 87 128.5t91 123.5q-55 41 -107 76t-105.5 80t-110 109.5t-117.5 164.5zM360 758q2 -2 14.5 -11.5t28 -19.5t27.5 -19.5t16 -11.5l7 9l-86 59zM369 258q29 29 53 70q23 39 51 75q-29 -33 -57 -65q-31 -33 -47 -80z M453 692l14 -10l8 8l-16 10zM750 362l2 -2zM774 657q37 -66 88 -130t103 -134q-47 70 -98.5 137.5t-92.5 126.5z" />
<glyph unicode="y" horiz-adv-x="1222" d="M0 -602q0 16 10 24.5t23.5 12.5t28 7t24.5 7q16 -16 56 -25.5t77 -9.5q68 0 129.5 44t117.5 120t107.5 174t98.5 207h-2q-41 -90 -88 -185.5t-102.5 -174t-120 -129t-138.5 -50.5q-59 0 -117 35q31 10 58 10q8 0 28 -4q33 0 55.5 2t43 9.5t39 23t41.5 39.5l24 -6 q59 78 111.5 168t103.5 182l37 82l-18 4l-31 -74q-47 -92 -98.5 -181t-116.5 -163q72 88 131 197t109 225l-13 21q-10 47 -30 92q-14 35 -33 72q37 -88 51 -170q-20 6 -33.5 25.5t-25 46t-20.5 55t-23 57.5l10 18q-33 51 -71 127t-80 156t-85 155.5t-84 127.5l-6 -7 l256 -460q-78 131 -166 266t-157 299q0 14 -4.5 37.5t-9.5 49.5t-11 51.5t-12 45.5l53 17q10 0 18.5 -9.5t14.5 -37.5q10 0 18 16t17.5 36.5t20.5 37t30 16.5q27 0 48 -36t40.5 -87t42 -107.5t53.5 -97.5q33 -55 66.5 -108t62.5 -113q31 -82 80 -165t78 -173 q49 164 78.5 292t46.5 255q23 66 39 147.5t16 159.5l45 -2q10 0 18.5 -9t8.5 -44q0 -10 -1 -21.5t-3 -27.5h18q18 68 43 108.5t47 40.5q16 0 31.5 -34.5t15.5 -116.5q0 -137 -32.5 -297t-67.5 -316q-57 -209 -135 -401.5t-197 -390.5q-37 -55 -83 -115.5t-106.5 -110 t-137 -81t-175.5 -31.5q-72 0 -97.5 18.5t-25.5 28.5q0 6 5 14q61 -20 131 -20q49 0 113.5 17.5t115.5 51.5q-47 -25 -105.5 -43t-105.5 -18q-74 0 -143 18q0 14 -11.5 26.5t-25.5 24t-25.5 24t-11.5 28.5zM381 469q31 -59 63 -119q33 -55 62 -112l-8 22q-23 53 -52.5 105.5 t-64.5 103.5zM492 -606q98 92 162.5 199.5t119.5 218.5q-59 -106 -122.5 -214t-159.5 -204zM547 494q2 -31 9 -51.5t16.5 -36t18.5 -28.5t17 -32l-4 6zM621 326l67 -168l12 12zM690 145q4 -6 8 -11t7 -13l10 16l-10 25zM721 211q4 -17 8 -25q8 25 14 50l13 49l-13 6z" />
<glyph unicode="z" horiz-adv-x="1402" d="M82 72v188q0 47 11 78t32 53q-16 -25 -27.5 -55.5t-11.5 -67.5v-192l64 -13q29 -6 57.5 -8t54.5 -2q29 0 51.5 1t44.5 1l158 -2l-156 -2h-22q-18 0 -40 -1t-46 -1q-23 0 -49.5 2t-55.5 8zM98 82v178q0 68 30 110t69 66.5t77.5 38.5t59.5 27l47 37q82 61 172 108t188 74 l31 8q45 23 96.5 39t96.5 41l-7 10q-51 -23 -103 -39t-89 -35l-31 -8q-102 -29 -195.5 -78t-168.5 -108l-41 -35h-8q-6 0 -17 -4l21 10q111 94 216 146.5t210 83.5q78 29 127 44t92 38q-80 18 -141.5 25t-114.5 7q-27 0 -51.5 -1t-49.5 -3q-14 2 -28 2h-27q-72 0 -138.5 -14 t-125.5 -39q0 14 -11.5 23.5t-11.5 23.5q0 12 28 30.5t103 35.5l-4 20q-70 -10 -121 -18t-85 -8q-23 0 -34.5 2t-15.5 14q0 4 2 8t2 8q41 41 100.5 73t132.5 53.5t154.5 32.5t167.5 11q63 0 142.5 -10t175.5 -27q20 -6 36.5 -11t35 -11t41 -14.5t55.5 -20.5q-2 2 27.5 -10 t60.5 -45l-16 -246q-41 -37 -98.5 -72t-119 -64.5t-121 -51t-106.5 -33.5q-47 -14 -86 -27.5t-73.5 -30t-69.5 -37t-72 -49.5q-27 -20 -44 -32.5t-28.5 -20.5t-18.5 -12t-13 -8l73 -6q86 -8 166 -17.5t162 -19.5q35 -4 41 -5t12 -1q168 -10 235.5 -15.5t67.5 -29.5 q0 -8 -2 -11q-84 4 -162.5 15.5t-185.5 15.5q-41 6 -95 11t-112.5 8.5t-117 5.5t-109.5 2q-47 0 -84 -1t-59 -6q55 0 130.5 -2t155.5 -5t157 -8t132 -13l72 -10q72 -10 134 -12.5t136 -10.5q-10 -10 -10 -20q-1 -18 25 -16h12q24 0 61 -5q41 -16 58.5 -29.5t17.5 -25.5 t-16.5 -23.5t-40.5 -17.5l-52 -15q-84 14 -160.5 19.5t-168.5 15.5l-54 6q-66 8 -129 14.5t-131 12.5l-217 16q-23 2 -49.5 3.5t-54.5 1.5h-37q-18 0 -39 -3l-37 -2v158q0 63 31 99t67 55q18 10 37 16q-4 0 -8 -2q-31 -10 -60.5 -29.5t-51 -52.5t-21.5 -86l-2 -162h199 l125 -6q96 -6 187 -16t181 -23l66 -10q78 -8 145.5 -16.5t138.5 -18.5q-29 -6 -62.5 -11t-74.5 -5q-39 0 -69.5 4t-71.5 8l-66 8q-72 10 -137 17.5t-141 15.5l-12 23h-166q-10 0 -22.5 -1t-29.5 -1h-51q-27 0 -53.5 1t-56.5 5zM125 391q39 57 94 85t86 36l-16 -10l-43 -29 q-25 -16 -58.5 -32.5t-62.5 -49.5zM291 442l16 4q35 12 45 31l13 8q37 29 76.5 61t82.5 58q-57 -29 -104 -70.5t-107 -78.5q-10 -6 -22 -13zM301 279l4 -3q10 6 39 22.5t61.5 35t63.5 36t47 27.5q-10 -6 -29.5 -15t-40 -19.5t-38 -19.5t-23.5 -13q-29 0 -50.5 -21.5 t-33.5 -29.5z" />
<glyph unicode="{" horiz-adv-x="835" d="M102 827q10 -2 19 -2h18q37 0 71 10.5t62 32.5l4 6q-45 96 -84.5 190.5t-39.5 205.5q0 94 31.5 171t88 131t135 82.5t173.5 28.5l-5 -10q2 -8 5.5 -18t3.5 -17q0 -10 -15.5 -18t-36 -13t-41 -9.5t-28.5 -6.5l6 -20q8 0 16.5 1t16.5 1q41 0 80 -12.5t55 -49.5 q-2 -23 -39 -35t-80 -33.5t-79 -62.5t-36 -123q0 -66 20.5 -111.5t44.5 -86.5t44 -84t20 -103q0 -31 -13 -55t-33.5 -44.5t-46 -35t-48.5 -24.5q2 -8 8.5 -15.5t12.5 -19.5t11 -31.5t5 -54.5q0 -49 -5 -97.5t-5 -97.5q0 -53 14 -111.5t45 -107.5t77 -80.5t110 -31.5h12 q12 0 20.5 -4.5t8.5 -22.5l-3 -8q-98 0 -182 57q-78 53 -119 135q37 -86 115 -141q84 -57 182 -64l-6 -26q8 -2 15.5 -4t15.5 -2q12 0 26.5 2t28.5 2q18 0 32.5 -6.5t25.5 -28.5q0 -29 -26 -48.5t-48 -29.5q-102 0 -198.5 34t-170.5 96.5t-118 151.5t-44 197q0 51 7.5 100.5 t7.5 100.5q0 4 -4 14q-2 8 -4 17q0 -59 -7 -119q-4 -59 -4 -115q0 -98 41 -187t108.5 -155.5t157 -107.5t187.5 -43q-23 -10 -46.5 -12.5t-47.5 -2.5q-70 0 -133.5 30t-116.5 77t-93 106.5t-63 120.5l21 8q-16 37 -29.5 78t-13.5 82q0 61 5 124t5 124l-16 -53 q0 33 -9.5 57.5t-44.5 24.5h-22zM180 397q0 10 1 21.5t3 21.5v-30q0 -53 5.5 -105.5t19.5 -99.5q-18 45 -23.5 94t-5.5 98zM258 852l23 -8l8 6l8 20l-10 4q-8 -16 -29 -22zM385 520q6 43 6 88q0 10 -4 23q2 -8 2 -19v-22q0 -18 -1 -35.5t-3 -34.5z" />
<glyph unicode="|" horiz-adv-x="602" d="M102 -109q0 63 3.5 125t7.5 125h20q-2 23 -3 43.5t-1 40.5q0 150 25.5 296.5t42.5 293.5h-13q-33 -166 -49 -332q-14 -162 -22 -325q0 78 2 153q2 82 6 164q6 106 29.5 234.5t48 259.5t45 259t20.5 236q0 27 -6 52l25 8q12 4 24 4q23 0 27 -25.5t4 -42.5l22 2 q2 12 5.5 36t10.5 45.5t18.5 37.5t29.5 16q20 0 35.5 -24.5t24 -57t12.5 -65.5t4 -49q0 -100 -15.5 -221t-37 -245t-44 -244t-36.5 -218q-16 -113 -25.5 -224.5t-9.5 -225.5q0 -10 2 -38t2 -61q0 -37 -6 -67.5t-27 -30.5l-8 2v156q-2 -37 -5 -75t-7 -79l-19 4l-14 -4l4 -43 q-4 -16 -14.5 -36.5t-32.5 -20.5q-23 0 -40 18.5t-28 36.5q0 121 6 240q8 115 13 233q-8 -111 -19 -219q-10 -113 -14 -225q-8 18 -15.5 37.5t-7.5 39.5zM162 395q0 -8 2 -18q4 41 4 82q2 37 6 71q-6 -27 -8 -53q-4 -31 -4 -61v-21zM299 170q4 72 10 141q6 76 17 152 q-15 -76 -21 -152q-4 -70 -6 -141z" />
<glyph unicode="}" horiz-adv-x="796" d="M0 1602q0 20 30.5 32.5t70.5 18.5t78 8t54 2q166 0 258.5 -81t92.5 -241q0 -74 -19.5 -112.5t-44 -69.5t-44 -64.5t-19.5 -95.5q0 -25 8 -50t30.5 -46.5t63.5 -37t109 -17.5l12 -197h-78q0 -47 14.5 -92t32 -89t31.5 -91t14 -96q0 -84 -31.5 -147.5t-85 -106.5 t-124 -65.5t-148.5 -22.5q-16 0 -35.5 5t-27.5 21l2 8q51 4 100 11q45 4 90 16q-43 -10 -88 -12q-47 -4 -96 -4l4 20l-4 14q-6 -2 -17 -2h-22q-33 0 -64.5 8.5t-31.5 36.5q0 27 29.5 43.5t50.5 24.5q47 -10 96 -10q39 0 78 7t69.5 25.5t50 48t19.5 74.5q0 49 -14.5 95.5 t-32 91.5t-31.5 92t-14 98v17q0 8 2 18l-6 2l-2 -31q0 -51 15 -99t32.5 -95t33 -94t15.5 -97q0 -47 -18.5 -72.5t-48 -40t-65.5 -17.5t-73 -3q-18 0 -36.5 1t-37.5 3q29 10 69 16.5t77 19t63.5 34t26.5 64.5h22l-18 86q-10 6 -24.5 47t-29 90t-24.5 93t-10 58v25q0 12 4 22 l-12 7q-2 -10 -3 -22.5t-1 -22.5q0 -41 9 -80t22.5 -76t27.5 -76q12 -35 23 -70q-12 37 -25 72l-29 74q-14 37 -23.5 74.5t-9.5 81.5v22q0 12 5 25q-78 41 -116 110.5t-38 155.5q0 23 12.5 65.5t29.5 88t36.5 85t36.5 56.5l2 14q0 49 -11.5 79t-31 46t-48 21.5t-63.5 5.5 h-16l-94 -2v8q0 14 -2.5 23.5t-2.5 15.5q0 10 13.5 15t31 8t36 4t28.5 1h10l-2 23q-14 2 -44 5t-59.5 11t-52 20.5t-22.5 33.5zM233 877q8 -25 30 -51.5t49.5 -51t57 -44t54.5 -30.5l4 17q-23 12 -51.5 30.5t-56 41t-48 47t-28.5 49.5l-2 -13zM578 692l86 -22v16z" />
<glyph unicode="~" horiz-adv-x="1114" d="M61 541q0 72 27 143q23 29 58.5 57.5t111.5 28.5q82 0 140.5 -10t104.5 -26.5t83 -37t76 -39.5q84 -39 126 -39q18 16 24.5 43t9.5 51.5t9.5 43t24.5 18.5q4 0 16 -4q-6 -20 -9 -40.5t-7 -39.5q10 37 27 76q10 -8 26 -8l4 6q4 8 11.5 16t16.5 15.5t22 7.5q23 0 39 -17.5 t26 -33.5q-10 -16 -17 -35t-12 -39q-20 -74 -42.5 -120t-48 -71.5t-55.5 -35t-65 -9.5q-47 0 -101 9.5t-101 23.5q39 -14 86 -26.5t100 -12.5q80 0 125 34t70.5 81t40 98t30.5 86q14 -25 15 -45q0 -29 -20.5 -94.5t-67.5 -124.5l-19 14q-18 -29 -41.5 -44t-49.5 -23 t-49.5 -10t-41.5 -2q-41 0 -73 8t-60 18l-29 10q-8 2 -14.5 4.5t-14.5 6.5q-18 8 -39.5 21t-43 27.5t-43 26t-39.5 15.5l2 -6l-4 -5q20 -6 41.5 -21t46 -31.5t50 -31t52.5 -20.5l29 -10q31 -6 61.5 -13.5t71.5 -11.5q29 0 68.5 4t80.5 27q-35 -23 -69.5 -29t-61.5 -6 q-74 0 -141.5 12.5t-124.5 51.5l-86 57q-23 10 -45.5 23.5t-44.5 13.5q-25 0 -35 -27.5t-10 -46.5q-12 0 -25.5 -2t-25.5 -2q-23 0 -23 29q0 10 2 18l-22 2q-16 -37 -37 -61.5t-43 -24.5q-29 0 -41.5 30t-12.5 79zM676 612q25 -14 55 -23t53 -9q27 0 39 22q-18 -18 -51 -18 q-45 6 -96 28zM918 430q4 4 12 8z" />
<glyph unicode="&#xa1;" horiz-adv-x="518" d="M102 1063q0 12 17.5 29.5t42 35t48 28.5t36.5 11q27 0 51.5 -6t50.5 -6q4 0 10.5 2t10.5 4q12 -16 16 -37q-20 -4 -31 -4q29 -6 37 -41l6 2q10 -20 14.5 -44.5t4.5 -47.5v-20q-6 10 -36 13t-42 5l-27 -8q29 0 55.5 -3t49.5 -20q-2 -6 -3 -13t-5 -13q-8 4 -16.5 4t-16.5 2 l-4 16h-49l-21 -14l4 -10q8 6 19.5 8t21.5 2q4 0 6 -1t6 -1q-18 -4 -40.5 -13.5t-30.5 -19.5q-4 4 -9.5 7t-11.5 5h2q-16 10 -29.5 22.5t-25.5 27.5l4 2l-16 16q-6 2 -21.5 8t-31 15.5t-27.5 18.5t-12 15zM117 -233q8 166 20 327q14 166 25 334q27 49 31 107q8 -4 19 -3.5 t22.5 -0.5t19.5 -6t8 -17l-2 -23l23 -2q10 25 31.5 46.5t50.5 21.5q18 0 29.5 -11.5t15.5 -27.5t5 -33.5t1 -32.5q0 -80 -5 -179t-15.5 -202.5t-26 -202t-33.5 -173.5q29 -20 35 -58q-8 -20 -27.5 -40.5t-36.5 -34.5l-137 -31l145 22q35 31 60 62q0 -43 -29 -79t-68.5 -65.5 t-85 -54t-75.5 -47.5v117l24 20q16 129 23 258q2 33 4 68q-2 -27 -4 -53q-4 -61 -15.5 -121t-31.5 -115v217h22q-2 14 -3 26.5t-1 26.5q0 74 15.5 148t15.5 149q0 16 -1 29.5t-3 30.5h-10q-4 -102 -15 -201zM174 -100q4 53 10 108q-6 -53 -10 -108zM197 -346l8 -4l10 12 l-8 2zM279 1130q8 -4 16 -6zM295 -369v-14l6 -2v14zM309 -217l27 168q-12 -41 -17.5 -83t-9.5 -85z" />
<glyph unicode="&#xa2;" horiz-adv-x="1181" d="M102 758q0 96 33 167.5t83 125t110.5 90.5t116 60.5t98.5 35.5t57 18q16 59 28.5 130t22.5 131q20 -4 43 -6.5t23 -30.5q0 -12 -2 -24.5t-6 -24.5l22 -5q6 12 14.5 30t20.5 34t26.5 27.5t30.5 11.5q27 0 34 -30t7 -48q0 -45 -8 -102.5t-18 -100.5q61 -12 124.5 -16 t116.5 -37q-10 -4 -13 -11t-6 -16.5t-7 -15.5t-15 -6q-23 0 -47 12t-47 19l-4 -21q27 -12 48.5 -34.5t21.5 -53.5q0 -16 -9.5 -26.5t-25.5 -10.5q-18 -8 -39 -8q-35 0 -66.5 2t-66.5 2q-16 -154 -45 -305.5t-47 -304.5l39 -2q10 0 19 1t19 1q12 0 23.5 -5t22.5 -24 q-35 -12 -72 -12q-29 0 -55 6l-2 -6q37 -6 73 -6q16 0 30.5 1t29.5 9l18 -33q4 6 14.5 20.5t21.5 29t22.5 24.5t19.5 10q27 0 38 -25.5t11 -48.5q0 -41 -22.5 -66.5t-55.5 -38.5t-70.5 -17.5t-68.5 -4.5q-18 0 -37.5 2t-38.5 5q2 -8 17.5 -12.5t34 -6.5t34.5 -2h25 q39 0 76.5 11.5t68.5 33.5q-29 -35 -72 -57.5t-90 -22.5q-23 0 -46 4t-46 4q-20 0 -22 -39.5t-6.5 -91t-17.5 -100.5t-54 -68l-19 7q29 72 46.5 147.5t23.5 153.5q-12 -76 -30.5 -150t-47.5 -145l-28 12q-4 -6 -11.5 -21.5t-17.5 -31t-20.5 -26.5t-18.5 -11q-12 0 -22.5 9 t-16.5 22.5t-10 28t-6 24.5q33 78 57.5 158.5t32.5 166.5l-2 3q-14 -82 -35 -152t-57 -143l-2 24q0 66 20.5 135.5t30.5 135.5l20 -3l-12 9q-6 4 -10 10l4 22q-70 23 -130.5 74t-105.5 117.5t-70.5 142.5t-25.5 148q0 98 42 168.5t108 136.5l-7 10q-63 -53 -112 -123.5 t-49 -159.5q0 -86 24 -167q16 -59 47 -115q-29 47 -49 100q-31 74 -31 152zM160 725q10 -66 34.5 -131.5t62.5 -122.5t89 -103t117 -71q-61 31 -111.5 76t-89.5 101t-64.5 120.5t-37.5 130.5zM184 502q11 -19 23 -35q-12 18 -23 35zM225 438q29 -38 64 -73t76 -66 q-41 25 -78 61q-37 37 -62 78zM334 676q4 -31 14 -60.5t31 -56.5q-14 29 -24.5 57.5t-20.5 59.5zM354 782q0 -74 33 -152.5t94 -121.5q6 55 14.5 119.5t17.5 130t18.5 129t17.5 119.5q-35 -12 -70 -26.5t-62.5 -39.5t-45 -63t-17.5 -95zM465 297l14 -8q0 10 -14 10v-2z M479 453l62 -41l-58 47zM485 504l13 -8q16 102 36.5 223t24.5 225l-10 -2q-14 -100 -30.5 -220t-33.5 -218zM524 477l6 -4l21 189q-8 -47 -14.5 -92.5t-12.5 -92.5z" />
<glyph unicode="&#xa3;" horiz-adv-x="1374" d="M20 207q0 51 18.5 87t50.5 58.5t73 32.5t88 10q55 0 109.5 -17.5t109.5 -17.5q12 14 20.5 31t22.5 37q16 20 20.5 55t4.5 60q0 33 -31 32q-20 0 -41 -2t-41 -2q-23 12 -47 13q-10 0 -27 -4q-4 14 -11 16t-7 18l30 23l-4 20q-29 8 -59.5 26.5t-30.5 53.5q35 29 72 49.5 t86 20.5h6l64 -2q-8 45 -14.5 90t-6.5 92q0 70 18.5 136.5t56.5 118.5t95 84t135 32t126 -21.5t83 -58.5t63.5 -85t65.5 -101q-16 -2 -24.5 -16.5t-24.5 -14.5q-8 0 -21.5 14.5t-26.5 32.5t-24.5 36.5t-15.5 26.5l-18 -14q8 -16 19 -43t22.5 -55.5t18.5 -56t7 -44.5 q0 -10 -3 -21t-19 -11q-16 8 -47 47t-63 80t-58.5 74.5t-34.5 33.5q-29 0 -44.5 -23.5t-23.5 -55t-9 -65.5t-1 -54q0 -47 10 -93l21 -90q66 -12 129 -23.5t129 -11.5q20 0 35.5 14.5t35.5 14.5q10 0 18.5 -8t12.5 -18q-39 -20 -81 -31.5t-85 -11.5q-35 0 -67 4q-23 4 -45 10 q51 -16 102 -17q94 0 180 37l17 -30l20 12q29 -4 43.5 -25.5t14.5 -48.5l-3 -24q-63 -16 -125.5 -38t-127.5 -22q-43 0 -85 3t-85 7q16 -12 47.5 -14t52.5 -2q80 0 159.5 11.5t157.5 35.5q-8 -25 -24.5 -40t-37 -24.5t-44 -13.5t-45.5 -6l-51 21q-27 -8 -52.5 -10.5 t-52.5 -2.5q-29 0 -54.5 7.5t-53.5 7.5q0 -8 12 -13.5t31.5 -8.5t44 -4t47.5 -1q27 0 47 1t29 1q-47 -6 -93 -6q-29 0 -59.5 2t-58.5 6q0 -66 -21.5 -125t-46.5 -119q59 -14 117.5 -26t118.5 -12q31 0 59.5 6t58.5 6l27 -17q-29 -23 -68 -27.5t-73 -4.5q-59 0 -117 6 q-53 8 -107 20q57 -16 113 -24q61 -10 123 -10q35 0 69.5 4t63.5 26l18 -26q8 6 22.5 28.5t30 45t29 41t19.5 18.5q16 0 29.5 -24.5t13.5 -39.5q0 -59 -25.5 -100t-66.5 -65.5t-92.5 -36t-102.5 -11.5q-102 0 -197.5 26.5t-193.5 55.5l-10 -10q102 -27 202.5 -55.5 t206.5 -28.5q66 0 131.5 18.5t112.5 65.5q-45 -59 -112.5 -90t-141.5 -31q-115 0 -225.5 27.5t-218.5 62.5l-27 39q-37 -37 -92 -60.5t-105 -23.5q-70 0 -137 10.5t-135 24.5q-6 31 -14.5 61.5t-8.5 61.5zM59 207q0 -23 5.5 -45t9.5 -45q6 -2 18 -4t26.5 -5.5t28 -6.5 t19.5 -3q-27 10 -53.5 37t-26.5 76q0 8 -10 18.5t-10 20.5v4q-6 -25 -7 -47zM156 258l6 -12l155 -6l-6 6zM199 348q12 2 24 2h23q41 0 82 -6q33 -6 67 -12q-35 8 -65 14q-39 8 -80 8q-27 0 -51 -6zM477 356l19 -6q35 39 47 96.5t12 108.5q-4 -4 -8 -4l-2 2 q0 -49 -17.5 -104.5t-50.5 -92.5zM735 231q4 -2 6 -4q-2 2 -6 4z" />
<glyph unicode="&#xa4;" horiz-adv-x="1511" d="M102 397q0 20 13.5 36t25.5 30l31 -2q8 25 27.5 41t42 28.5t45 25.5t39.5 32l-4 10q-45 -27 -87 -56.5t-79 -66.5q41 47 88 84t104 62q-16 53 -21 109t-5 114q0 53 12 106.5t28 104.5q-43 33 -84.5 67.5t-76.5 75.5q0 35 -19 55q12 10 25.5 23.5t30.5 17.5l14 -12l16 14 q0 29 27 61t57 32q14 0 25.5 -9.5t19.5 -21.5l19 -25q10 -12 22 -18q39 8 90 8q55 0 113.5 -10t116 -25.5t112 -34t101.5 -34.5l-6 -21q18 -4 39.5 -9t37.5 -18q23 51 70 87t105 36l16 -2l33 15q14 -14 20 -37q-35 -4 -67.5 -13.5t-65.5 -19.5q35 4 67.5 13.5t67.5 9.5 q4 -37 19.5 -71t19.5 -71l-22 8q-4 -2 -13 -2q-6 0 -11 1t-9 1q-16 0 -31 -16q12 4 23.5 8t23.5 4q14 0 26.5 -10t12.5 -25l-2 -8l-20 4l-11 21q-4 -8 -11 -10t-15 -3t-14.5 -4.5t-6.5 -13.5l10 -12q4 12 15.5 16t23.5 6q-18 -4 -28.5 -20t-18.5 -33q47 -68 67.5 -148.5 t20.5 -162.5q0 -90 -32 -184q57 -61 78.5 -118t21.5 -141q0 -23 -6 -40l10 -33q-18 -14 -35 -21q-6 25 -8 51.5t-2 53.5v41q-2 -14 -3 -26.5t-1 -25.5q0 -25 2 -48t2 -48l-33 -10l4 -10q-16 -16 -40.5 -25.5t-47.5 -9.5l-20 2q2 10 3 20.5t1 22.5q0 35 -6 76t-15 65 q4 -29 6.5 -56.5t2.5 -55.5q0 -33 -7 -70q-23 4 -28.5 20.5t-5.5 34.5v15l22 14q-6 12 -8 30.5t-3 38t-6 35t-20 21.5l-10 -4q18 -27 21.5 -59.5t3.5 -63.5q-10 70 -41 133q-135 -70 -283 -70q-98 0 -193.5 30t-171.5 93q-16 0 -40.5 -10t-50 -23.5t-49 -29t-38.5 -23.5 l-32 8q14 27 33.5 45.5t49.5 24.5q-31 0 -53 -21.5t-39 -43.5l-32 10l-19 -12q-55 0 -92 36q14 16 33.5 41t42 48.5t44 45t38.5 31.5q-51 -29 -91 -70.5t-77 -84.5zM305 1110l60 -47l6 18q-29 27 -60 37zM467 1296l22 -16q104 -8 207 -27q100 -18 197 -51q-102 35 -211 62 q-111 29 -215 32zM575 868q0 -80 10.5 -142t40 -106.5t84 -67t144.5 -22.5q111 0 176.5 46.5t65.5 164.5q0 55 -20.5 105.5t-61.5 89.5q-37 35 -91.5 61.5t-114.5 46t-120.5 31.5t-109.5 21q23 -10 39 -22.5t16 -26.5q0 -41 -27 -74l-18 12l-4 -16l12 -8q-16 -18 -18.5 -44 t-2.5 -49zM616 1122q70 -23 139.5 -41t141.5 -37q-70 25 -139.5 43.5t-141.5 34.5zM827 295l4 -12q78 0 155 14t144 53l-12 15q-66 -37 -140.5 -53.5t-150.5 -16.5zM969 1171l4 -2q27 -10 53 -22v4q-27 10 -53 20h-4zM1042 979q6 -4 16.5 -17.5t22 -31t19.5 -35.5 q6 -10 8 -18q-2 8 -4 18q-6 18 -16.5 36.5t-21.5 32t-24 15.5zM1120 836q4 -29 8.5 -55.5t4.5 -55.5v-14l2 43q0 20 -4.5 40.5t-10.5 41.5zM1200 1012q41 -66 62.5 -141.5t21.5 -153.5q0 -37 -6 -74q-4 -35 -14 -68q14 35 18 72q6 39 6 80q0 29 -3 71t-12 85t-26.5 77.5 t-46.5 51.5zM1241 1016q23 -25 38 -58.5t23.5 -71.5t11.5 -76t3 -71q0 -47 -7 -93t-24 -91l12 -12q18 45 25.5 93t7.5 95q0 78 -20.5 155t-63.5 142z" />
<glyph unicode="&#xa5;" horiz-adv-x="1280" d="M102 1239q16 6 23.5 22.5t26.5 16.5q33 -12 49 -47l18 14q-12 25 -20.5 51.5t-8.5 55.5q0 16 9.5 29.5t25.5 13.5q33 0 74 -37t83 -95.5t82 -129t73.5 -137t58.5 -122t33 -81.5q25 49 49 119.5t47 146.5t41 149.5t29 128.5q2 8 5 25.5t8 34t14 29t22 12.5l12 -6 q-23 -70 -43 -160t-44 -184.5t-52 -182.5q-29 -86 -62 -149q37 63 66 147q29 88 52.5 181.5t46 183.5t46.5 157l27 -12l6 2q4 18 15.5 36.5t33.5 18.5q23 0 38 -28.5t26 -44.5l-23 -66q14 31 31 53q4 -10 8 -21t4 -24q0 -16 -10 -53t-23.5 -79t-28 -79.5t-20.5 -56.5l-20 6 q-16 -72 -43 -159t-66 -150l15 -2l14 31l-8 -31q45 -4 89 -12.5t91 -8.5q12 0 26.5 2.5t30.5 2.5q20 0 35.5 -8.5t15.5 -32.5q-78 0 -153.5 4t-153.5 14l-2 -2q78 -10 158 -15.5t180 -17.5q18 -16 19 -41q0 -18 -9.5 -32.5t-19.5 -30.5q-78 10 -159 21.5t-159 11.5h-14 l-88 -3q102 -8 204.5 -12t201.5 -33q-10 -10 -22.5 -16t-27.5 -6q-35 0 -67.5 4t-67.5 6v23q-16 -2 -31.5 -3t-31.5 -1q-45 0 -88 4t-88 8l-13 -17q47 -2 93 -4q33 -2 65 -6q-33 2 -68 2h-96l-28 -49h71q63 0 127 -2t127 -10q20 -10 42 -20.5t44 -10.5q-2 -6 -2 -18.5 t-1 -24.5t-6 -20.5t-17 -8.5q-6 0 -19 5l-2 -23q20 -12 31.5 -18.5t11.5 -28.5q0 -31 -23.5 -43t-50.5 -12q-41 0 -79.5 7t-79.5 7q-25 0 -48.5 -2t-48.5 -2q-4 -41 -24.5 -91t-20.5 -91v-15q0 -18 -5 -24t-34 -6l9 69q-6 -20 -17 -43q-12 -25 -35 -24v-13q-25 -10 -45 -10 q-16 0 -33.5 3t-33.5 13q12 20 19 51t11.5 65t6.5 65.5t2 56.5q-6 -25 -9.5 -55.5t-8.5 -62t-13 -61.5t-23 -52l-22 24q4 16 7 48t7 48l21 -2q-2 6 -2 19q0 29 7 54.5t11 53.5l-16 2q-6 -53 -19 -100q0 6 2 21.5t3 32t2 29.5t1 17q-23 2 -43 6.5t-43 4.5q-10 0 -26.5 -3.5 t-30.5 -3.5q-16 0 -25.5 6.5t-9.5 26.5q0 2 16.5 4t34.5 2l39 2q20 2 27 2q-29 2 -58.5 2.5t-58.5 4.5q2 4 2 12q0 10 -4 22l-20 -2q-12 10 -18.5 7.5t-6.5 13.5t6 31.5t15 29.5q14 -6 43.5 -8t63.5 -3t67 -1t53 -4l4 6q-55 0 -111.5 5t-109.5 20q6 10 17.5 18t23.5 8 l117 -6v-20q16 4 30 4h74l-10 12q-16 0 -31.5 1t-32.5 3h62l-35 45l-180 -2q-23 12 -49.5 17.5t-53.5 5.5q2 4 2 12q0 10 -2 18.5t-2 16.5q0 27 29 26l16 -2v23q-23 10 -44 29.5t-21 48.5q0 16 15.5 21t37.5 5q20 0 39.5 -2t32.5 -2l71 -2q-10 43 -47 108.5t-84 132t-93 127 t-75 95.5zM520 563l45 -61h25l-47 63zM618 494h21l43 71h-20zM649 494q18 0 34.5 -1t37.5 -1q14 0 27.5 2t25.5 6l-2 2q0 2 1 4t1 4h-115zM668 575h20l12 17l-22 2zM784 770h7q14 27 27 61.5t24.5 71.5t21.5 72q8 33 19 61q-23 -59 -45 -133q-25 -76 -54 -133zM852 801 q14 43 33 100q16 55 35 96q-17 -41 -31 -96q-16 -59 -37 -100zM856 565h29h-29z" />
<glyph unicode="&#xa6;" horiz-adv-x="520" d="M102 750q4 23 5.5 33t5.5 32l24 19q0 4 -1 10t-1 12q0 23 3 78t8.5 116.5t8.5 117t3 77.5l-2 31l-2 -2q-4 0 -9 4q-4 -29 -7 -90.5t-7 -130t-8 -130t-8 -89.5q4 49 8 132t9 172t13.5 170t22.5 130q31 20 43 57q12 -4 37.5 -11t27.5 -24l-6 -14l21 -6q26 16 55 16 q27 0 49.5 -14t22.5 -43q0 -53 -13.5 -137t-29 -173t-28.5 -173t-13 -138q0 -8 1 -16t1 -16q0 -12 -5 -20.5t-22 -8.5l-12 2q2 27 4 86t5 124.5t9 123.5q6 57 15 84q-10 -25 -19 -82q-6 -57 -10 -124t-7 -126t-9 -86l-33 2v-16q-20 -14 -47 -15q-39 0 -66 19 q10 18 16.5 79.5t10.5 134t6 142.5t4 105q-6 -37 -9 -101.5t-8 -133.5t-13.5 -129t-20.5 -89zM145 121v123q0 27 5 53q23 27 22 55q6 -2 21 -2q20 0 30 2l23 -16l-2 -8l22 -2q12 18 34.5 28.5t45.5 10.5t35 -19.5t17 -45.5t6.5 -52.5t1.5 -40.5v-84q0 -49 -3.5 -99.5 t-8.5 -98.5t-13 -83l14 -39q-6 -8 -13 -15t-17 -11q-8 18 -14.5 38.5t-6.5 41.5q0 53 12 106q-14 -35 -14 -76q0 -59 12 -114l-30 -15l6 -12q-12 -20 -34 -34.5t-46 -14.5l-23 2q0 37 -4 85t-9 100.5t-9 101.5q-4 41 -4 73q-2 -6 -2 -16v-43v-68q0 -59 4 -115.5t8 -115.5 q-18 4 -28.5 18.5t-15.5 33t-6 38t-3 35.5l22 6q-8 16 -10 33.5t-2 36.5q0 12 1 38.5t2 55.5t2 55.5t1 38.5q0 35 -8 62h-10l-2 -273q-2 29 -4.5 70t-3.5 86t-1 86z" />
<glyph unicode="&#xa7;" horiz-adv-x="1079" d="M102 680q0 61 25 106t65.5 74t93 42t107.5 13q-49 27 -95 56.5t-82 67.5t-57.5 86.5t-21.5 109.5q0 76 34 136.5t89 103.5t124 66.5t138 23.5q59 0 136 -23.5t146.5 -59.5t118 -76t52.5 -71v-2q0 -10 -19.5 -17t-23.5 -11q-27 23 -52.5 43t-54.5 41l-12 -19 q23 -18 40 -45t17 -57q0 -16 -11 -31.5t-30 -17.5q-18 10 -64 25.5t-96.5 30.5t-96.5 26.5t-64 11.5q-41 0 -70.5 -21.5t-48.5 -56.5q0 -18 28.5 -38.5t70.5 -42t91.5 -44.5t91.5 -44.5t70.5 -40.5t30.5 -38q70 -82 95.5 -191.5t25.5 -213.5t-27.5 -202.5t-103.5 -174.5 q45 -49 88 -104.5t43 -125.5q0 -119 -62.5 -188.5t-154.5 -106t-199.5 -48t-197.5 -11.5q-18 0 -39 6t-31 23q31 8 61 10q29 2 56 6h-17q-23 0 -47 1t-47 1v35l-55 -2q-14 4 -32.5 14.5t-18.5 28.5q0 25 20.5 42t38.5 28q23 -2 60.5 -4.5t82.5 -2.5q63 0 132 6.5t127.5 24 t97.5 49t41 84.5l-9 9q-8 -59 -42.5 -91t-83 -47.5t-102.5 -18.5t-101 -3q-45 0 -88 2t-88 6q39 18 84 25.5t91 10.5t92 5t89 14l8 -20q35 12 69 31.5t38 54.5q-47 47 -106.5 100t-122 112.5t-123 123t-107.5 129t-76 132t-29 134.5zM254 1016q35 -31 75 -53.5t81 -44.5 l34 2q-47 27 -94 50t-90 56zM356 666q14 -51 41 -92.5t59.5 -77t68.5 -70.5t67 -76l29 43l20 -10q16 41 23.5 85t7.5 89q0 84 -3 134t-22.5 85t-60.5 62.5t-115 68.5q4 -18 18.5 -30.5t33 -20.5t38 -15t33.5 -16q41 -49 54.5 -115.5t13.5 -125.5q0 -47 -6.5 -93.5 t-28.5 -87.5q31 76 30 164q0 14 -4 54.5t-13 83.5t-21.5 76.5t-26.5 35.5q-29 12 -56.5 26.5t-56.5 30.5q0 -12 -11 -19t-26.5 -10t-32 -4t-24.5 -1l4 -23q14 0 38 -3t47.5 -11t39.5 -21.5t16 -31.5t-22.5 -29.5t-52 -20t-58 -15.5t-41.5 -19zM365 248q35 -31 73 -70l80 -78 q41 -39 80 -73.5t74 -55.5q-145 147 -299 287zM608 868l33 -34q35 -53 48 -126t13 -135q0 -29 -3 -61.5t-10 -64t-21.5 -61.5t-36.5 -48l2 -4q45 43 61.5 114t16.5 130q0 29 -4.5 63.5t-12.5 69t-21.5 66.5t-29.5 57q-8 10 -16.5 19t-18.5 15zM801 100q4 -8 6 -14 q-2 8 -6 14zM807 86q8 -14 12 -31q6 -20 29 -37v-16q0 -74 -27 -131q10 18 21 35q12 18 12 41v6l-2 65q-14 20 -27 39q-8 14 -18 29zM815 825v2l10 -30q-4 16 -10 28z" />
<glyph unicode="&#xa8;" horiz-adv-x="907" d="M41 1544q0 14 13.5 24.5t30.5 17.5t35.5 10t29.5 3q4 0 23.5 -5t44 -12t48 -12t35.5 -5q4 0 10 1t11 1q10 0 10 -23q0 -4 -1 -9t-1 -9q-27 6 -72 11t-74 17q14 -8 34 -13t40.5 -8t38.5 -7t31 -10q0 -8 -1 -16.5t-1 -16.5l6 -2q2 -8 2 -23q0 -18 -3 -35.5t-7 -33.5l-5 -19 l-2 4q-6 8 -28.5 18.5t-38.5 10.5q-4 0 -13.5 -1t-19.5 -1t-19.5 -1t-11.5 -1q12 -2 32 -3t39 -6.5t35.5 -12.5t22.5 -21q-8 -23 -10 -23l-10 6q-2 2 -8 4l-6 25q-4 -4 -15 -4q-4 0 -16 1t-25.5 3t-25 3t-17.5 1q-14 0 -22 -10q2 -4 2 -12q14 6 33 6q6 0 17 -1t25.5 -2 t25.5 -3t18 -4q-16 4 -27 4q-12 0 -30.5 -2t-39.5 -7l-39 -6q-18 -2 -30 -4h-9q-6 10 -13 15.5t-13 13.5t-9 19.5t-3 33.5q0 8 8 8l-2 23q-14 14 -23.5 45t-9.5 55zM518 1520q0 35 14.5 46t36.5 11q10 0 20.5 -1t20.5 -1q16 0 24.5 5t27.5 5q6 0 24.5 -6t41 -14.5t45 -14.5 t36.5 -6q6 0 12 2t10 2q14 0 16.5 -13t2.5 -28h-23h-14q14 -4 23 -12q12 -10 12 -33h10q4 -10 6 -23.5t2 -25.5q0 -18 -3 -32.5t-7 -30.5l-6 4q-10 6 -28.5 11t-37 9t-35 6t-22.5 2q-10 0 -18.5 -1t-18.5 -1q41 -8 81 -11t79 -32v-6q0 -6 2 -10t2 -6l-2 -2q-12 4 -31.5 6 t-32.5 6l-8 21q-16 -4 -24 -5q-20 0 -41 7.5t-41 7.5q-10 0 -22.5 -4t-12.5 -17q10 2 18 2h21q20 0 39 -4l24 -4h-12h-24q-37 0 -63 -2t-64 -2h-13q-10 12 -17 14t-12.5 4.5t-7.5 10.5t-2 32q0 12 1 22.5t10 10.5l6 -2v23q-12 12 -18.5 34.5t-6.5 45.5zM709 1536 q16 -10 32 -14l9 -2q-4 2 -9 2q-14 6 -32 14zM743 1329q7 -2 13 -2q-6 0 -13 2z" />
<glyph unicode="&#xa9;" horiz-adv-x="2095" d="M102 872q0 129 54.5 251t145.5 216.5t211 151.5t251 57q41 0 82 -5t82 -15l12 18q-14 10 -33.5 13.5t-38.5 3.5h-110q-55 0 -109 -2l-16 10q2 23 24.5 42t52 33.5t60.5 22.5t49 8q166 0 320.5 -58t292.5 -146q-121 80 -253 138t-276 77q23 2 41 2h43q72 0 157 -27 t175 -71t179 -102t167 -122.5t142.5 -130.5t103.5 -123l-19 -12q61 -96 81 -208t20 -222q0 -184 -19.5 -315.5t-62.5 -221.5q-39 -80 -99 -131q47 41 84 90q76 100 97 260q0 -166 -74 -267t-187.5 -155.5t-253 -72t-270.5 -17.5q-53 0 -104.5 1.5t-102.5 11.5 q49 -4 101.5 -6.5t105.5 -2.5q133 0 265.5 19.5t240.5 75.5q39 20 72 45q-66 -45 -156 -70q-100 -29 -232 -37t-302 -8q-231 0 -415.5 69.5t-312.5 199.5t-197 315.5t-69 416.5zM354 903q0 -193 59.5 -356.5t200.5 -298.5q55 -53 119 -83t133.5 -44.5t142 -18.5t144.5 -4 h184q154 0 241 33t130 98.5t54.5 164t11.5 231.5q0 117 -18.5 230.5t-94.5 207.5q-45 55 -125 115.5t-171 116t-183 99.5t-160 66q0 -14 -6 -17t-17 -3q-63 0 -122.5 17.5t-122.5 17.5v-23q96 0 187 -46t155 -116l-31 -14q-70 2 -136.5 23.5t-135.5 21.5q-68 0 -146 -39 t-142.5 -100.5t-107.5 -135t-43 -143.5zM575 -20q98 -55 207 -83t219 -42q-111 4 -219 28.5t-207 83.5v13zM782 666q0 88 17.5 174t58.5 155.5t109.5 112.5t173.5 43q53 0 103 -16.5t93 -46t78 -70.5t55 -88q-10 -4 -24 -13.5t-25 -9.5q-16 0 -34.5 24.5t-28.5 35.5l-15 -15 l19 -57l-25 -49l-22 -10l-15 4q-2 -2 -4 -2q-6 0 -6 2q-41 23 -81 41t-87 18q-14 0 -27.5 -5t-17.5 -20l-2 -2q-8 -70 -25.5 -136t-17.5 -136q0 -16 4 -32.5t6 -39.5l21 -12q31 -18 95.5 -31.5t130 -26t115.5 -24.5t50 -28l-2 -11q-47 4 -105.5 7.5t-117 12.5t-111.5 27.5 t-92 49.5q31 -35 84 -54.5t113.5 -29t121 -13.5t103.5 -10l-4 -33l43 -4q12 -6 23.5 -17.5t11.5 -27.5q0 -23 -18.5 -39t-35.5 -26q-104 23 -211.5 34t-197.5 43.5t-152 102.5q-61 70 -71 205q0 -86 26 -148q27 -61 73 -101t106.5 -63.5t128 -38t138 -23.5t138.5 -24 q-35 -18 -74 -18q-63 0 -125.5 13t-124.5 28l4 22q-160 20 -238.5 102.5t-78.5 245.5q0 68 7 134.5t18 132.5l-7 -4l-6 4q-31 -117 -30 -238q0 -45 7 -81t19 -69.5t29 -66.5t35 -72q-29 16 -47.5 55.5t-29.5 85.5t-16.5 91t-5.5 76zM881 358q31 -27 63 -51q31 -20 66 -35 q-37 12 -72 29q-37 20 -57 57zM946 1524q150 -43 289 -110.5t264 -160.5q-125 100 -259 171t-294 100zM999 553q4 -23 13 -41zM1010 272q4 -2 8 -2q-4 0 -8 2zM1214 -98l299 16q27 2 56 12zM1651 1128q10 -10 21 -22t24 -23l-4 9zM1733 1245q78 -78 123 -143.5t67.5 -136 t28.5 -152.5t6 -188q0 -63 -2 -137t-14.5 -146t-36.5 -139q-23 -66 -64 -117q43 49 68 109q27 63 39 130.5t14 136.5t2 132q0 98 -4 188t-25.5 172t-68.5 155t-133 136zM1792 309q18 88 22.5 178.5t4.5 180.5q0 57 -7 116q2 -35 3.5 -71.5t1.5 -71.5q0 -166 -25 -332z" />
<glyph unicode="&#xaa;" horiz-adv-x="923" d="M102 1022q0 51 16.5 97t35.5 93q57 16 115.5 38t119.5 22q18 0 41 -5t33 -22q-72 -12 -145.5 -22.5t-143.5 -36.5l-20 -66q-8 -29 -9 -61q4 33 13 59q8 29 20 60q66 29 137.5 38t143.5 9v-35l51 4q14 -4 27.5 -12t19.5 -23q0 14 -5 45t-15.5 61.5t-24.5 54t-33 23.5h-88 q-41 0 -81 -6t-81 -10q-4 8 -5 15.5t-3 13.5q0 12 10.5 18t24.5 10.5t28.5 6.5t22.5 2l-4 20q-14 0 -37.5 3t-45 10.5t-37 20.5t-15.5 34q0 27 39 45t90 29.5t101.5 16.5t72.5 5q102 0 170 -52t107.5 -131t56 -172t16.5 -175q0 -86 -23.5 -152t-64.5 -139 q-53 -8 -108.5 -13.5t-110.5 -5.5q-70 0 -142.5 12.5t-133 45t-98.5 87t-38 140.5zM123 420q0 23 27.5 36t64.5 19t75 7t58 1q86 0 169 -20.5t169 -20.5q10 0 21.5 2t21.5 2q12 0 20.5 -8t8.5 -32q-61 4 -124 8t-122 20q59 -20 120.5 -24t123.5 -15q-2 -6 -2 -16 q0 -12 2 -17h18q14 -20 14 -47q0 -16 -6 -32l-12 -33h-6q-33 0 -66 4q31 -6 62 -18q-12 -16 -33 -23l-35 6q-10 2 -33 4l-24 23q-12 -2 -23.5 -3t-21.5 -1q-41 0 -81 6t-81 6q-10 0 -29.5 -2t-19.5 -16q63 -2 125.5 -2.5t126.5 -10.5q-72 6 -139 6q-72 0 -141.5 -3 t-139.5 -3q-14 8 -27.5 11.5t-22.5 8.5t-15.5 14t-6.5 34q0 16 7.5 21t23.5 5v23q-47 27 -47 80zM152 967q16 -59 53 -97q39 -39 90 -60.5t108 -29.5q53 -6 103 -6q-47 2 -98 10q-57 10 -109.5 32t-93.5 58q-37 37 -53 93zM258 1053l31 8v-31l2 2q0 18 5 26.5t26 8.5l10 12 q-20 -4 -35 -8q4 10 6 17.5t6 11.5l-10 -2q-6 -29 -16.5 -29t-24.5 -16zM289 1018q0 -27 14 -44.5t35.5 -28.5t47.5 -15t46 -4l137 8v2q-18 -2 -52 -3t-52 -1q-23 0 -49.5 5t-52 15.5t-46 26.5t-28.5 39zM311 1026q8 -25 32 -38t52.5 -20t58 -8.5t52.5 -1.5h8q12 0 26.5 3.5 t14.5 15.5q-14 0 -41 -2t-55 -2q-45 0 -84 8q-33 8 -41 33q6 -10 20 -17q18 -8 41 -12t45.5 -5t34.5 -1q29 0 59.5 6t30.5 45q0 29 -1 55.5t-3 55.5q-8 -20 -24.5 -35t-32.5 -27l-41 4q-20 2 -43 2q-49 0 -80 -16q10 0 20.5 1t20.5 1q23 0 47 -2l49 -4q-29 -14 -81 -25.5 t-85 -13.5zM471 281q72 -8 145 -13q27 -2 52 -6q-7 2 -13 4q-53 16 -106 17h-6zM561 963h6q16 0 17 18l-19 -2zM567 987q20 0 21 27q0 23 -1 46t-3 46l-13 -2q0 -29 -2 -58.5t-2 -58.5z" />
<glyph unicode="&#xab;" horiz-adv-x="1353" d="M102 555q0 78 30 160t77 160.5t104.5 148.5t112.5 121q27 25 55.5 43t55.5 47q10 -12 27.5 -22.5t17.5 -26.5q0 -8 -13.5 -23.5t-17.5 -19.5l16 -15q18 10 38 18.5t42 8.5q20 0 35.5 -10t15.5 -33q0 -25 -26.5 -62.5t-65.5 -84.5t-85 -101.5t-85 -109t-65.5 -108.5 t-26.5 -101q0 -43 38 -83t83 -74t84 -61.5t39 -41.5l-8 -21q-41 23 -88.5 51.5t-88.5 63.5t-68.5 79t-27.5 97l-2 -16q0 -45 30 -87t70.5 -79t87 -67t80.5 -50l-16 -31q16 -4 29.5 -19.5t13.5 -31.5q0 -29 -23.5 -43t-46.5 -18q-41 39 -90 72.5t-97 68.5t-91 75t-70 89 q25 -49 63 -91t83 -80t91 -71.5t89 -66.5q-33 0 -66.5 14t-65.5 35.5t-60.5 46t-51.5 45.5l15 16q-70 53 -113 129t-43 164q0 78 32.5 152.5t67.5 142.5l-4 -2l-6 8q-43 -72 -73.5 -142.5t-30.5 -156.5q0 -61 20 -119q18 -57 53 -106q-37 47 -57 102q-23 55 -23 117z M453 475q41 72 77.5 140.5t92.5 129.5q43 45 107.5 99.5t130 109t121.5 106.5t83 97q10 -10 31.5 -16t21.5 -23q0 -10 -8 -24.5t-14 -22.5l16 -12q20 16 48 33.5t54 17.5q14 0 25.5 -8.5t11.5 -24.5q0 -37 -24.5 -80t-64.5 -90t-88 -93t-96 -89t-90 -80t-67 -63 q39 -33 68 -73t55 -83q8 -16 31.5 -42t48.5 -51.5t43 -45.5l20 -19l-2 -14q-43 10 -75.5 33.5t-61.5 58.5q25 -37 57.5 -63.5t75.5 -38.5l-8 -27q16 -6 44 -22.5t28 -34.5q0 -23 -16.5 -39.5t-36.5 -24.5q-63 14 -110.5 40t-85.5 59.5t-70.5 76.5t-69.5 93 q31 -47 61.5 -90.5t66.5 -80t79 -65.5t102 -43q-10 -4 -19.5 -6t-19.5 -2q-43 0 -82 19.5t-71.5 49t-60.5 64.5t-50 68l18 14q-35 37 -55 62.5t-35.5 42t-28 27.5t-34 22.5t-54 23.5t-86.5 31q53 86 106.5 163.5t125.5 149.5l-8 8q-45 -39 -79 -77.5t-61.5 -78.5t-52 -85 t-55.5 -97q70 -20 109.5 -31.5t67.5 -27.5t50 -45q20 -27 53 -76q-33 47 -55 72q-25 29 -54.5 44t-71.5 25.5t-109 28.5zM526 512l6 -2l29 57q-10 -14 -18 -27.5t-17 -27.5zM582 496q33 -10 62.5 -24.5t55.5 -37.5q-33 29 -55 40.5t-63 21.5zM743 305q3 -4 7 -8q-4 4 -7 8z M793 551q10 -14 22 -26.5t23 -24.5l-43 53z" />
<glyph unicode="&#xac;" horiz-adv-x="1091" d="M102 967q0 23 38 36t92.5 20t112.5 9t101 2q139 0 272.5 -10t270.5 -25l-2 -100q0 -35 -3 -92t-8 -112.5t-14.5 -95.5t-23.5 -40q-6 0 -14 4q14 90 18 189q-2 -45 -8 -90q-6 -47 -21 -95l-32 8q0 -16 -11.5 -27t-27.5 -11q-23 0 -41.5 14t-34.5 31q18 35 21.5 74.5 t7.5 78.5q-8 -35 -18.5 -70.5t-20.5 -70.5l-13 20q-6 10 -6 21q0 31 7.5 61.5t7.5 61.5h22l-14 20l-8 -12q-10 10 -37 13t-47 3q-111 0 -218.5 -2t-216.5 -8q-55 23 -108 23l2 12q0 10 -1 18.5t-1 16.5q0 14 8 19t37 5v23q-25 10 -46.5 29.5t-21.5 48.5zM612 786h181v17 q-14 2 -48 2h-47q-47 0 -86 -8l2 -2q0 -2 -1 -4.5t-1 -4.5zM846 971q25 -4 49 -8q26 -5 55 -9q-4 -33 -4 -61q0 -20 -2 -45q4 27 8 49q4 31 9 64q-29 4 -62 6q-29 2 -53 4z" />
<glyph unicode="&#xad;" horiz-adv-x="851" d="M82 702q0 35 28.5 47.5t63.5 12.5q23 0 43.5 -2t42.5 -2q33 0 63.5 5t61.5 5q18 0 51 -2t72 -7t77 -12.5t66 -17.5q14 0 29.5 2t28.5 2q20 0 24 -11t4 -24v-6q-61 0 -123 2q-53 4 -104 15q49 -12 104 -15q63 -4 123 -14q-4 -16 -4 -25q0 -2 1 -4t1 -4l19 -4 q16 -18 16 -45q0 -33 -20 -63l-9 4q-51 16 -120.5 22t-114.5 6q-16 0 -32.5 -1t-33.5 -1q76 -8 153 -12t148 -33q-18 -23 -34 -22q-25 4 -42.5 6t-39.5 4l-15 22q-10 -2 -21 -3t-22 -1q-41 0 -78.5 7.5t-76.5 7.5q-31 0 -68 -11q2 -2 2 -6v-4q16 0 32.5 1t33.5 1q49 0 97 -4 t97 -10q-68 6 -137 6q-68 0 -135.5 -3t-138.5 -3h-25q-16 10 -29.5 13t-24 7t-15.5 14.5t-5 37.5q0 10 4 17t15 7l12 21q-23 12 -34 33.5t-11 43.5zM500 713q4 -2 10 -4q-4 2 -10 4z" />
<glyph unicode="&#xae;" horiz-adv-x="2314" d="M102 846q0 193 70 323.5t188.5 212.5t272 119t323.5 41l9 -45q-8 -12 -41 -21.5t-74 -15.5t-79 -10t-54 -6l4 -21q10 2 29 2h47q41 0 92 -2t95 -8t73.5 -17.5t29.5 -29.5q0 -10 -28.5 -18.5t-65.5 -15.5t-71.5 -11t-47.5 -6q-106 -16 -200 -46t-166 -85.5t-114 -139 t-42 -206.5t44 -220.5t118 -171t171 -126t204.5 -86t219.5 -49t212 -15.5q143 0 264 30.5t208 98.5t136 176.5t49 265.5q0 164 -55 275.5t-138 183.5t-181.5 113t-185.5 65.5t-150.5 40t-75.5 37.5l4 10q145 -23 288.5 -65.5t264.5 -128.5q-117 86 -257 133t-284 70l6 32 q-14 2 -58 6.5t-91 12.5t-84 19.5t-37 25.5t22.5 24.5t52.5 18.5t58.5 12t38.5 4q57 0 113.5 -6t111.5 -16l-149 30q131 0 280.5 -34.5t283.5 -103t237.5 -171t144.5 -237.5l-10 -29q35 -82 52.5 -168t17.5 -176q0 -203 -71 -349.5t-193 -241.5t-284.5 -140t-349.5 -45 q-162 0 -315.5 36.5t-304.5 90.5l-6 -17q154 -51 309.5 -90t319.5 -39q193 0 356.5 48.5t285 146.5t191.5 248q63 139 74 325q-8 -188 -74 -329q-72 -152 -194.5 -251.5t-290.5 -147.5t-361 -48q-139 0 -280.5 24.5t-273.5 76t-247.5 127t-201.5 179t-135.5 233.5t-49.5 288 zM709 879q0 68 16 130t50 111t87 79t129 30q78 0 143.5 -32t113.5 -85t75 -122.5t27 -143.5q0 -37 -26 -70t-58 -53q16 -16 72.5 -51t118 -73t110.5 -70.5t51 -45.5l-10 -14q-82 53 -164 103.5t-160 109.5q76 -59 156 -112.5t157 -106.5l-18 -25q8 -6 22.5 -19t29 -27.5 t24.5 -29t10 -26.5q0 -20 -18.5 -25.5t-32.5 -5.5t-27.5 2t-27.5 6q-55 39 -122 80t-136.5 83t-137.5 85l-4 4q61 -43 125 -84q66 -41 128.5 -82t111.5 -80q-53 12 -123 51.5t-140.5 87.5t-134 98t-106.5 87l-2 6l-19 15q29 -72 46.5 -139.5t41.5 -157.5h-18l-6 -15 l-197 -26q-12 10 -28.5 50t-34 94t-34.5 117.5t-30.5 121t-21.5 103.5t-8 67zM940 891q0 -10 1 -21.5t3 -21.5l2 -4q0 -20 6 -39l9 2v37h8l4 -35l10 2l18 35l66 4l6 -25l55 11q0 23 -11 55.5t-29.5 62t-42 51t-50.5 21.5q-20 0 -31.5 -16.5t-16.5 -38t-6 -44t-1 -36.5z M954 918q0 10 1 26.5t6.5 30.5t13.5 24.5t22 10.5q20 0 41 -17.5t38.5 -43t28.5 -52.5t11 -45l8 2l-10 -8q0 20 -10 44.5t-25.5 47.5t-35 40t-37.5 26l-27 -9q-4 -29 -8 -68.5t-4 -68.5v-6l2 -2h-8q-6 33 -7 68zM983 1053q35 0 66.5 -20.5t56 -51.5t39 -67.5t14.5 -69.5 q0 -20 -14.5 -28.5t-28.5 -10.5q20 0 35.5 9t15.5 36q0 29 -14 64.5t-36.5 66.5t-52.5 52.5t-60 21.5zM1004 850q4 10 13 19.5t21 9.5q6 0 15 -5l14 -22zM1153 1137q66 -51 109 -127t43 -160q0 -29 -25 -54.5t-47 -43.5q30 12 53 39q23 29 23 57q0 84 -44 161.5t-112 127.5z M1466 -18q160 18 289 71q131 57 223.5 152.5t141.5 228.5t49 303q0 141 -38 259t-108.5 214.5t-171 173t-225.5 132.5q117 -55 215 -134t170 -178.5t113 -217.5t41 -249q0 -162 -51.5 -294t-144.5 -229t-224 -157q-127 -57 -279 -75zM1776 240q66 31 113.5 88t80.5 126.5 t48.5 145t15.5 141.5q0 29 -9 58q-8 27 -14 55q4 -31 6 -59q4 -29 4 -58q0 -147 -59 -275t-186 -222z" />
<glyph unicode="&#xaf;" horiz-adv-x="634" d="M41 1565q0 35 23.5 46t52.5 11q18 0 35.5 -2t35.5 -2q23 0 46.5 4t46.5 4q14 0 38.5 -2t53 -7t59.5 -13.5t55 -20.5q4 -2 15.5 -5t15.5 -3q8 0 15.5 1t13.5 1q14 0 20 -7t6 -18q0 -4 -1 -8t-1 -8q-53 4 -106 13.5t-100 23.5q47 -20 100 -27.5t106 -21.5q-4 -20 -4 -33 l17 -2q10 -20 10 -41q0 -23 -7 -36t-14 -34q-55 25 -122.5 32t-122.5 11q59 -10 119.5 -17t117.5 -40q-8 -10 -13 -15.5t-15 -5.5q-16 0 -34 5.5t-36 9.5l-6 22q-6 -2 -15 -2h-12q-35 0 -67.5 9.5t-67.5 9.5q-27 0 -49 -8v-11q55 0 96 -4t94 -14q-47 4 -92 6t-94 2h-143 q-12 12 -22.5 14t-19 5.5t-13.5 10.5t-5 27q0 16 3 27.5t14 11.5q2 0 4 -1t6 -1v23q-16 12 -26.5 34.5t-10.5 45.5z" />
<glyph unicode="&#xb0;" horiz-adv-x="890" d="M102 1391q0 143 83 233t212 135l19 -53v-12q14 4 25.5 5t25.5 1q43 0 84 -16.5t77 -43t66.5 -59.5t50.5 -65l-20 -13q47 -66 47 -147q0 -66 -26.5 -113t-70.5 -76.5t-100.5 -43t-113.5 -13.5q-59 0 -117.5 11.5t-112.5 41.5q0 -8 -6 -8q53 -39 113.5 -51t124.5 -12 q66 0 124 18t102 54t69.5 88.5t25.5 117.5v21q0 12 -2 22q6 -29 6 -53q0 -68 -27.5 -120t-73.5 -87t-105.5 -52.5t-120.5 -17.5q-72 0 -137.5 18.5t-114.5 56.5t-78 96.5t-29 136.5zM352 1380q0 -20 17.5 -31.5t42 -16.5t48 -6t36.5 -1q16 0 36.5 8t20.5 31q0 45 -21.5 65.5 t-48 30.5t-50 16.5t-27.5 22.5q-23 -25 -38.5 -54.5t-15.5 -64.5zM385 1675q61 -4 123.5 -26.5t114 -61.5t83 -93t31.5 -124q0 -55 -20.5 -96t-54 -68.5t-77.5 -44t-91 -24.5q43 2 89 18t80.5 45t57 69t22.5 91q0 70 -29.5 125t-76.5 97t-107.5 68.5t-121.5 39.5zM424 1518 q29 -4 59.5 -16.5t55 -32t41 -46t16.5 -59.5q0 -23 -15.5 -39t-31.5 -20q20 0 34.5 18t14.5 41q0 31 -15.5 57.5t-40 47t-53 36t-55.5 21.5z" />
<glyph unicode="&#xb1;" horiz-adv-x="1099" d="M61 168q0 18 11.5 29.5t28 17.5t35 8t32.5 2q174 0 337 -30.5t335 -57.5l20 -2q8 0 19.5 1t21.5 1q20 0 35.5 -6t15.5 -29v-6q-88 4 -175 15.5t-173 35.5q84 -31 171 -41t175 -20q-4 -8 -4 -16q0 -10 4 -19h23q23 -18 22 -49q0 -35 -28 -63q-29 12 -85.5 21t-121 16.5 t-125 12.5t-94.5 9q104 -18 207.5 -30.5t205.5 -43.5q-10 -8 -21 -14t-24 -6q-35 0 -60.5 7t-60.5 11l-18 21q-8 0 -14 -1t-15 -1q-76 0 -147.5 19.5t-144.5 19.5l-41 -3v-12q78 -4 153 -14l127 -19q-121 14 -242 21q-135 8 -270 18q-43 25 -94 25q2 4 2 12q0 10 -2 18.5 t-2 16.5q0 27 26 27l17 -2v22q-23 10 -42.5 29.5t-19.5 48.5zM281 657q0 20 11 34t27.5 21t36 9t37.5 2l74 -2q14 0 20.5 20.5t7.5 50t3 65.5t9 65.5t22.5 50t45.5 20.5l21 -35h22q12 23 34 36.5t46 13.5q18 0 29.5 -9.5t18 -23.5t7.5 -31.5t1 -32.5q0 -33 -4.5 -64.5 t-4.5 -64.5q0 -25 20.5 -39t52.5 -22t68 -12t67.5 -9.5t52 -14.5t20.5 -26q0 -8 -4 -16q-66 18 -135 25q-68 6 -135 16q66 -16 131 -25q70 -6 135 -26l-8 -33q14 0 21 -11.5t7 -23.5q0 -23 -10 -42t-27 -36q-16 14 -51 24.5t-77 17t-80.5 8.5t-61.5 2v-7q66 -4 134.5 -11 t125.5 -46l-33 -16q-25 0 -48 7t-48 11v23q-10 -2 -20 -2h-19q-25 0 -48 2t-46 6l-2 -12q14 -4 40 -6.5t40 -4.5l-80 2q-2 -27 -5 -51t-3 -51q0 -16 6 -29.5t6 -29.5q0 -14 -11 -19.5t-22 -7.5q-6 29 -10 57.5t-6 57.5l-2 -25q0 -23 2 -46.5t6 -45.5l-35 -8l6 -19 q-10 -16 -27.5 -27.5t-37.5 -11.5q-18 0 -29.5 14.5t-16.5 36t-7 46t-2 45.5q-2 -31 -3 -61.5t-1 -61.5q-23 12 -34.5 35.5t-11.5 48.5q0 12 3 18l8 51l16 11q-8 27 -8 61q-39 -4 -67.5 -4t-55.5 -2q-16 8 -31.5 11t-28 7t-19.5 14.5t-7 35.5q0 27 23 26l12 -2v23 q-20 10 -36.5 30.5t-16.5 44.5zM688 -68q4 0 10 -2q-4 2 -10 2zM700 -70q9 0 17 -2q-8 2 -17 2z" />
<glyph unicode="&#xb2;" horiz-adv-x="1071" d="M102 645l127 105l-118 -109l2 -6q63 49 145 115.5t159 142.5t139 156.5t85 158.5l-12 4q-23 -55 -67 -118.5t-97 -125t-110.5 -114.5t-106.5 -88q45 35 113.5 106.5t132 156.5t109.5 170t46 147l-94 20q-43 -14 -82 -50t-76 -59q-4 16 -15 24.5t-15 25.5q10 20 26.5 36.5 t36.5 26.5l-12 16q-23 -10 -46.5 -18t-47.5 -8q-18 0 -33 9t-15 26v18q39 78 115 132t166 54q57 0 117.5 -18t110 -53t80 -85t30.5 -116q0 -92 -19.5 -159.5t-54.5 -125t-82 -111.5t-100 -120q16 0 61 5t93 5q35 0 61.5 -6t26.5 -22l-2 -11q-70 0 -137.5 -2t-137.5 -4l-2 -2 h203q35 0 69 -2l-6 -20l35 -15h23q16 -8 29.5 -20t13.5 -31q0 -18 -23.5 -34.5t-38.5 -26.5q-29 10 -59.5 11t-59.5 1q-33 0 -65.5 -3t-65.5 -5q57 -2 113.5 -5t114.5 -12q-45 -20 -94.5 -25t-96.5 -5l-172 2v20q-47 -10 -93 -13t-93 -3l-186 2l-11 -8q84 -2 166 -2h166 q-51 -4 -102 -5h-230zM139 623h260q16 0 33 2l-2 2q-51 8 -102.5 9t-104.5 1h-65zM195 666q43 31 90 59.5t82 71.5l-2 8q-41 -41 -85 -74t-85 -65zM373 813q14 0 36.5 22.5t46 52.5t44.5 58q16 25 26 37q-38 -41 -75 -84q-37 -45 -78 -86z" />
<glyph unicode="&#xb3;" horiz-adv-x="1191" d="M102 711q0 14 11.5 22t27 12.5t31.5 5.5t27 1q39 -29 91 -48.5t109.5 -29.5t113.5 -14.5t103 -4.5q33 0 82.5 3.5t95.5 15.5t77.5 38.5t31.5 75.5q0 53 -29 93q-23 35 -61 55q84 -47 84 -152q0 -41 -29.5 -64.5t-70.5 -36.5t-85 -17t-73 -4q-111 0 -209 22.5t-199 69.5 q51 0 99.5 -8.5t95.5 -17.5t94 -17.5t101 -8.5h26q14 0 29 3l2 -21q18 2 51 7t63.5 17.5t53 30t22.5 43.5q0 53 -25.5 94.5t-66.5 69t-90 43t-96 17.5l-43 -15q47 0 101 -12t100.5 -38t77 -65.5t30.5 -95.5q0 -23 -24.5 -37t-40.5 -20q41 16 59 53q-6 68 -53 109 t-110.5 62.5t-133.5 28.5t-123 7v191q10 -2 29 -3q63 0 112.5 40t49.5 112q0 14 -11.5 33.5t-15.5 36.5q-29 16 -61.5 27.5t-67.5 11.5q-12 0 -29 -5l-28 13l-23 16q10 18 27.5 27.5t38.5 9.5l-2 23q-25 0 -49.5 -3.5t-45.5 -19.5q-16 -29 -35.5 -55.5t-39.5 -55.5 q-14 0 -22.5 8.5t-12.5 20.5t-5 25.5t-1 23.5q0 51 24.5 88t62 60.5t85 35t90.5 11.5q76 0 143.5 -21.5t118.5 -62.5t79.5 -103.5t28.5 -144.5q0 -23 -5 -50.5t-19.5 -55t-40 -51t-68.5 -38.5q68 -4 131.5 -33.5t112.5 -77.5t79 -109.5t30 -129.5q0 -90 -41 -149.5 t-104.5 -94t-141.5 -48t-152 -13.5q-18 0 -59 2t-93.5 8t-108.5 13.5t-102 19.5t-77 26.5t-31 32.5l6 13q104 -35 202.5 -54.5t209.5 -19.5q72 0 151.5 8t146.5 36t111 83t44 147q0 43 -11 86q-8 41 -26 78q16 -37 20 -73q6 -39 6 -82q0 -86 -38.5 -140.5t-100 -86 t-135.5 -43t-141 -11.5q-117 0 -219.5 19.5t-210.5 60.5l12 33q-14 4 -31.5 10t-34 16.5t-28 23.5t-11.5 32zM803 942l4 -4zM807 938q4 0 6 -2q-4 2 -6 2z" />
<glyph unicode="&#xb4;" horiz-adv-x="686" d="M41 1368q0 35 23.5 49.5t56.5 30.5l24 -12q23 23 50.5 37t55.5 26t53.5 26.5t47.5 39.5q-4 0 -4 8q-47 -31 -94 -55q-45 -25 -94 -52q76 45 149 93q76 47 174 98q6 -2 21 -2q27 0 49 12q4 -14 14.5 -30.5t10.5 -30.5t-19 -17l10 -20q27 -4 51.5 -28.5t24.5 -47.5 q0 -29 -19.5 -45t-54.5 -29q-29 -14 -66.5 -37.5t-81.5 -48t-92 -47t-100 -33.5q-12 -4 -24.5 -20t-22.5 -16t-18 7t-14 15q90 70 196 102q-53 -10 -104 -37.5t-99 -56.5q-4 8 -9 15.5t-11 11.5l-12 -10q-33 8 -51.5 35.5t-18.5 52.5l8 4q53 23 120 61.5t124 73.5 q-61 -29 -121.5 -63.5t-132.5 -59.5z" />
<glyph unicode="&#xb5;" horiz-adv-x="1173" d="M82 -676q0 82 10 162t21.5 160t21.5 159.5t10 161.5q0 39 -2 104.5t-2 145.5q0 61 2 144t9.5 172.5t20.5 176.5t33.5 156.5t49.5 115.5t70 52l141 21q0 -10 1 -23.5t1 -27.5q0 -59 -4 -129t-4 -115q0 -10 -3 -49t-6 -89.5t-5.5 -99.5t-2.5 -76q0 -53 22.5 -97t45.5 -44 q33 0 63.5 12.5t57 33t51.5 44t47 45.5v31q0 61 -4 160.5t-14 216.5l-6 78l26 2q10 47 47 75.5t86 28.5h4l99 -2q0 -35 5 -102.5t10 -140t10 -140t5 -102.5q0 -45 -11 -87t-32 -81v-23q23 47 39.5 92.5t16.5 98.5q0 20 -3 72.5t-7.5 111.5t-8.5 111.5t-4 72.5q4 -20 8 -72.5 t8.5 -111.5t6.5 -111.5t2 -72.5q0 -53 -15.5 -101.5t-42.5 -95.5q0 -66 5.5 -131t21.5 -131l-14 -23q-16 12 -26.5 43t-14.5 67t-5 71t-1 55l-7 -6v-29q0 -25 1.5 -53.5t5.5 -57t12 -53t24 -41.5l-26 -24q12 -8 34.5 -22.5t46 -31t41 -35t17.5 -32.5q0 -10 -8 -15 t-20.5 -8.5t-24.5 -3.5h-19q-57 0 -96 26t-63.5 65.5t-38 89t-19.5 96.5l-12 -8q8 -66 27.5 -128.5t72.5 -105.5q-59 33 -88.5 90.5t-42.5 120.5q-47 -31 -101.5 -52.5t-113.5 -21.5q-12 0 -25.5 2t-23.5 5h17h16q59 0 120.5 19t108.5 54l-2 15q-53 -27 -102 -49.5 t-113 -22.5q-8 0 -25.5 2t-35 6t-32.5 10t-21 13v-19l40 -20q-25 0 -43 12q-4 -199 -27.5 -393.5t-88.5 -382.5l-23 10q-4 -2 -10 -2q-25 0 -25 29q0 39 11.5 74.5t19.5 72.5l-20 4q-6 -20 -19.5 -55t-32 -68.5t-41 -58.5t-49.5 -25q-10 0 -13 13.5t-3 19.5zM406 143 q25 -18 56.5 -26t61.5 -8q29 0 63 9t67.5 24.5t65.5 33t54 33.5l-2 6q-25 -16 -55.5 -33.5t-64.5 -33t-68.5 -25.5t-63.5 -10q-31 0 -58.5 12t-55.5 18zM573 274q23 8 52 29q31 20 62.5 45t60 50.5t45.5 41.5v4q-18 -16 -46 -41.5t-60 -50t-62 -47.5q-29 -18 -52 -31z M748 877q0 -23 2 -77.5t5 -113.5t6 -113.5t7 -74.5l4 10q-2 20 -6 71.5t-7 110t-5 110.5t-2 72q0 35 17 74t54 55q-39 -14 -57 -50t-18 -74zM768 176l2 -14l12 8l-2 14zM848 1006q6 2 20 2q18 0 38 -2t40 -5q0 -27 -2 -51t-2 -49v-16q0 -8 2 -17q0 35 2 69t4 69q-20 2 -40 3 t-40 1q-10 0 -22 -4zM952 844q2 -10 5.5 -53t4.5 -92.5t2 -92.5t1 -55q0 -25 -5.5 -49.5t-5.5 -48.5q6 16 11.5 38.5t5.5 38.5q0 14 -1 59.5t-3 97.5t-5.5 97t-7.5 58z" />
<glyph unicode="&#xb6;" horiz-adv-x="1079" d="M61 1044q0 70 33 134.5t87.5 114.5t123 80t139.5 30q129 0 200 -77t71 -204q0 -55 -11.5 -107t-25.5 -105.5t-27.5 -105.5t-17.5 -108q-8 -96 -9 -189t-1 -188q0 -94 17 -180t17 -176q0 -8 -6 -26.5t-16 -18.5q-8 0 -14 16q-4 10 -9 27v-12q2 -14 6 -29q-35 0 -34 -18 q0 -18 12 -26.5t25.5 -13.5t25.5 -11.5t12 -20.5q0 -35 -33.5 -54.5t-62.5 -27.5q-20 25 -38.5 49.5t-39.5 46.5q-18 141 -32.5 283.5t-14.5 286.5q0 90 6.5 178t8.5 178q-14 -63 -17.5 -126.5t-3.5 -129.5q0 -162 8.5 -321.5t24.5 -319.5q-27 43 -41 99.5t-20.5 118 t-7.5 121.5t-3 110l21 12q-12 106 -13 215q0 53 4.5 108.5t14.5 108.5q-10 0 -16.5 -21.5t-9.5 -52t-4 -63.5t-1 -58v-34l2 -191q-4 68 -4 133v135q0 39 1 77t11 75q-66 0 -126 18.5t-107 53t-76 87t-29 119.5zM313 1059q0 -10 1 -25.5t5.5 -31t12.5 -25.5t22 -10q4 0 5.5 1 t5.5 1q18 -10 48.5 -11.5t51.5 -1.5q2 16 4 46t4 62t3 61.5t1 45.5l-12 23q-66 0 -109 -33t-43 -92v-10zM473 956q12 0 18.5 25t9.5 55.5t3 57.5v36q0 20 -4 39t-11 37q-4 -4 -6 -4h-2q6 -23 6 -47q0 -14 -2 -42t-4 -58.5t-4 -57t-4 -41.5zM578 455q0 -68 2 -135.5t8 -133.5 q-4 61 -6 121t-2 105q0 90 7 178t19 176q-18 -78 -23 -155.5t-5 -155.5zM696 37l4 166l19 10q-6 45 -6 94q0 84 10 166t10 168q0 23 -1 44.5t-3 43.5h-12q-2 -117 -8 -231q-6 -104 -11 -213q0 176 11 348q10 180 10 364q0 51 11 99.5t11 99.5q4 -2 13 -2q8 0 16 2t16 2 q20 0 24.5 -16.5t4.5 -32.5v-8h21q4 12 11 27.5t17 28.5t22.5 23.5t26.5 10.5q23 0 36.5 -24.5t19.5 -57.5t7 -67.5t1 -53.5q0 -111 -8 -222.5t-19.5 -222t-19.5 -221t-8 -221.5q0 -20 5 -46.5t5 -51.5q0 -23 -8.5 -39t-34.5 -18l-4 59q0 -14 -6.5 -41t-26.5 -27 q8 -12 16.5 -30.5t8.5 -36.5q0 -16 -11.5 -30.5t-29.5 -14.5q-51 0 -74 32.5t-23 79.5q0 141 6.5 283.5t10.5 284.5q-10 -123 -12.5 -247t-6.5 -247l-2 -2q-4 -20 -8 -38.5t-4 -39.5q0 -27 6 -47q-14 25 -23.5 54.5t-9.5 58.5zM885 231q4 57 8 115q6 61 14 121 q-12 -60 -18 -119q-4 -57 -4 -117z" />
<glyph unicode="&#xb7;" horiz-adv-x="768" d="M102 795q0 29 19 39l80 69q8 6 35.5 8t62.5 5.5t71 9.5t62 22q10 6 19.5 14.5t19.5 14.5q8 4 12 4q12 0 23.5 -12.5t21.5 -30.5q-31 -16 -52 -29.5t-41.5 -26t-42 -23.5t-54.5 -19q33 4 55.5 14t43 22.5t43 24.5t57.5 23q0 -10 6 -23q8 -16 18 -18l12 6q29 -18 54 -55 q8 -16 14 -33t12 -29l4 -29q-47 -4 -103 -26.5t-85 -38.5q-18 -10 -33.5 -23.5t-32.5 -27.5q59 31 118 62.5t132 31.5h11v-14q0 -25 -9 -27l-37 -14q-14 -6 -30 -17l-29 25q-16 -20 -41 -37q-25 -14 -51.5 -23.5t-50.5 -23.5q-18 -10 -32.5 -23.5t-25.5 -36.5q4 -4 4 -3 t5 -9q27 23 52 42.5t54 35.5q49 27 105 47q-10 -6 -19.5 -9t-19.5 -9q-37 -23 -53.5 -39.5t-31 -35t-37 -40t-71.5 -49.5q-10 2 -20.5 3t-18.5 1q-25 0 -45 -10q-4 16 -16.5 33.5t-16.5 33.5q-8 16 -8 23q0 12 21 20l-17 31q-23 4 -43 24.5t-35 45.5q-20 35 -32.5 68.5 t-12.5 60.5z" />
<glyph unicode="&#xb8;" horiz-adv-x="755" d="M41 -426q0 29 59 72q29 -29 86.5 -40.5t155.5 -11.5q39 0 57 9q12 6 31 14q-37 -10 -65 -12q-37 -4 -91 -4q-39 0 -77.5 9t-79.5 44q20 10 37 10q33 0 45 -4t24 -6l8 -23h52q33 0 67.5 2t63 8.5t47 19.5t18.5 38q0 2 -10 8q0 -29 -31.5 -45t-95.5 -16h-33q-14 0 -30 2h34 q59 0 89 8t42.5 18.5t13.5 22.5t5 18q-4 47 -20.5 73t-35 41t-34 26.5t-15.5 29.5v4l119 78q63 -2 126.5 -43.5t96.5 -111.5q10 -20 12.5 -42t2.5 -51q0 -96 -37 -155.5t-92.5 -93t-122 -46t-125.5 -12.5q-45 0 -93 4t-89 12.5t-68 19.5t-27 26q0 6 7 16q43 -12 72.5 -20.5 t57 -11.5t58.5 -3q29 -2 63 -2q-66 4 -118 10q-55 8 -129 37q4 8 8 15.5t4 15.5q-10 0 -26.5 11.5t-16.5 31.5z" />
<glyph unicode="&#xb9;" horiz-adv-x="841" d="M102 1331q0 27 27 49.5t69 42t91 38t96 37t85 38.5t54 45l215 -104l-2 -117q-6 -82 -20.5 -165t-28.5 -167t-24.5 -168t-10.5 -164q0 -10 1 -21t1 -24q0 -16 -5 -26.5t-21 -10.5l-11 2q6 139 18.5 276.5t35.5 274.5q-29 -135 -39 -272t-25 -274q-4 0 -10 1t-10 1 q-8 0 -13 -2l-2 -37q-8 -14 -19 -24.5t-28 -10.5q-20 0 -36.5 14.5t-26.5 30.5l61 682q-10 -80 -18 -164t-15.5 -168t-17.5 -168t-24 -164q-10 16 -16.5 36t-6.5 40q0 51 7 103.5t11 103.5h23q-2 14 -2 29v30q0 80 12 172.5t23 171.5l-19 -8q-8 -78 -16 -167t-14 -167 q4 88 10 158q2 31 4 59.5t3 53t3 41t2 20.5l-252 -104q-4 14 -14 24.5t-12 26.5q6 14 21 24.5t30 14.5l-10 20q-8 -2 -21 -2h-25q-31 0 -59.5 7.5t-28.5 31.5z" />
<glyph unicode="&#xba;" horiz-adv-x="933" d="M102 479q0 31 44 48.5t100.5 25.5t110.5 10t77 2q12 0 46 -3t76 -10t87 -15.5t82 -18.5t61.5 -20.5t24.5 -22.5q0 -4 -2 -10t-4 -10q-70 29 -143.5 39t-147.5 24q35 -10 72 -16l73 -13q37 -6 72 -16t70 -27l-13 -32l23 -27q0 -25 -16.5 -45t-32.5 -37q-39 25 -96.5 42.5 t-104.5 17.5h-6l-76 -3q27 -2 66 -4t79 -8t73.5 -19.5t52.5 -35.5l-27 -16q-23 0 -35 10t-33 14l-10 23q-10 -2 -29 -2q-37 0 -74.5 6t-74.5 6q-23 0 -42 -2t-40 -10v-11q29 2 55.5 3t55.5 1q25 0 50 -2t48 -6q-14 2 -28.5 3t-28.5 1q-78 0 -158 -11t-176 -11 q-18 8 -32.5 10t-26 6t-17.5 15.5t-6 37.5q0 16 10 19.5t23 3.5v20q-23 10 -37.5 32t-14.5 44zM131 1161q0 74 13.5 158t47 153.5t94 115.5t152.5 46q41 0 90 -22q-51 20 -90 20q-88 0 -145 -46t-91 -115.5t-48.5 -150.5t-14.5 -151q0 -84 20.5 -165.5t76.5 -147.5l10 6 q-53 70 -71.5 155t-18.5 171q0 68 10 142.5t40 138t83 105.5t137 42q63 0 119 -31l35 8q45 -20 86 -56t71.5 -81t49 -96t18.5 -103q0 -12 -1 -24t-3 -25q10 -43 20 -87t10 -89q0 -63 -31.5 -118.5t-81.5 -95.5t-112 -63.5t-121 -23.5q-90 0 -156.5 37t-110.5 97.5t-65.5 138 t-21.5 157.5zM211 1391q12 35 33 67q20 37 52 64.5t75 45t98 17.5h4q-10 2 -22.5 3t-22.5 1q-47 0 -82 -17.5t-61.5 -46t-44.5 -65.5q-18 -35 -29 -69zM348 1296q4 16 8 42t13.5 49.5t24.5 40t40 16.5q31 0 58.5 -22.5t52 -54.5t45 -65.5t35.5 -56.5q-10 29 -28.5 63.5 t-43.5 65.5t-56.5 51.5t-64.5 20.5q-23 0 -39 -17.5t-26.5 -41t-14.5 -49t-4 -42.5zM381 1196q0 -25 4 -69t15.5 -85t32.5 -71.5t56 -30.5q31 0 50.5 16.5t30 41t13.5 51t3 49.5t-4 46t-4 46q0 10 1 17t3 18q-10 23 -20.5 53.5t-27 58t-39 46t-53.5 18.5q-23 0 -35 -26.5 t-18 -60.5t-7 -69t-1 -49zM616 1513q51 -47 87 -110.5t59 -130.5l22 -23q-23 78 -64.5 144.5t-103.5 119.5z" />
<glyph unicode="&#xbb;" horiz-adv-x="1462" d="M102 248q59 49 109.5 107.5t98.5 120t96.5 121.5t101.5 116q-55 -51 -102 -111l-95 -119q-47 -59 -97 -115.5t-112 -99.5q2 27 19.5 54.5t39 55.5t44 52.5t39.5 44.5l18 -12q49 82 112.5 151.5t133.5 135.5l-8 16q-59 -57 -115 -121q-53 -59 -104 -119q51 61 102 123 q53 66 113 127q-14 37 -43 89.5t-63 104.5t-68.5 101t-61.5 80l49 39l45 -37l17 14q-8 16 -13.5 35t-5.5 37q0 20 10.5 38.5t32.5 18.5q39 0 81 -35.5t83 -93t79 -127t69.5 -136t55.5 -124t34 -88.5q-123 -96 -220.5 -197.5t-201.5 -215.5q-10 -10 -24.5 -32t-30 -43.5 t-32 -39t-30.5 -17.5l-22 15q45 47 84.5 98t79.5 101.5t82 99.5t91 94q-51 -41 -94 -89t-83 -98.5t-81 -101.5t-86 -96l-24 23q-8 -10 -20.5 -20.5t-26.5 -10.5q-35 0 -45.5 28.5t-10.5 57.5zM504 254q0 25 14 53q59 12 134 46t150 77t142.5 90t112.5 88 q-117 -94 -250 -168.5t-279 -111.5q14 25 42 44t60 34.5t64.5 29t57.5 27.5l12 -19q31 23 90 58t119.5 75.5t105.5 85t45 82.5l-12 5q-10 -39 -49 -78t-88 -76t-103 -68q-51 -31 -88 -49q35 20 86 53q55 35 107.5 75t89.5 80t39 69q-59 86 -114.5 172t-94.5 182 q14 4 26.5 12t26.5 8q16 0 28.5 -21.5t16.5 -31.5l19 13q-2 10 -4 21t-2 24q0 25 9 45t38 20q37 0 89 -54t100 -126t82 -144.5t34 -109.5q0 -102 -59.5 -186t-146.5 -151t-186.5 -118t-179.5 -84q-14 -6 -35.5 -18t-43 -23.5t-42 -20.5t-34.5 -9q-23 0 -23 22 q125 59 248 124t240 138q-123 -66 -243 -132t-249 -120l-14 31l-33 -16q-25 0 -40 12t-15 39zM508 772l6 -16l10 8l-6 12zM528 719l4 -12l7 26l-4 10zM549 786l10 11l10 30l-12 -8z" />
<glyph unicode="&#xbc;" horiz-adv-x="1966" d="M102 1501q0 31 30 57.5t74 49t96 42t97 37t75 33t30 31.5l213 -221q-8 -80 -23 -162l-26 -164q-12 -82 -22.5 -164t-10.5 -161q0 -10 1 -22.5t1 -27.5q0 -16 -5 -29.5t-22 -13.5l-10 2q4 139 16.5 276.5t36.5 272.5q-33 -135 -42 -272t-23 -274l-33 2v-39 q-8 -14 -20.5 -24.5t-28.5 -10.5q-20 0 -36.5 14.5t-27.5 30.5q18 78 27.5 161t14.5 168t8.5 169t11.5 163q-23 -160 -34 -320.5t-42 -320.5q-20 35 -20 68q0 53 6 103.5t10 101.5l22 8q-2 12 -2 25v28q0 84 12.5 166t22.5 166l-18 -8q-8 -90 -17 -178l-16 -148q6 72 10 146 q6 88 15 176q-61 -29 -127 -42.5t-125 -41.5q-4 16 -13.5 26.5t-13.5 26.5q6 14 21.5 23.5t29.5 13.5l-10 20q-10 -2 -20.5 -3t-20.5 -1q-23 0 -42 8.5t-30 32.5zM362 18q0 20 11.5 37t21.5 33q51 0 102.5 29.5t99.5 77t92 107.5t81 120.5t66 116.5q27 49 43 86 q-33 -68 -76 -144q-47 -84 -105.5 -161.5t-130 -136t-155.5 -77.5q43 51 98 89t100 92l25 -6q92 143 181 287.5t140 310.5l-12 2q-53 -141 -123 -275q-63 -125 -147 -237q72 102 125 213q59 119 107 241.5t95.5 246.5t106.5 247q23 45 49.5 86t48.5 88q16 -2 36 -10t20 -31 q0 -12 -7.5 -26.5t-11.5 -24.5l21 -8q16 27 42.5 48t61.5 21q20 0 26.5 -15t6.5 -32q0 -49 -22.5 -116.5t-53.5 -140.5t-62.5 -141.5t-50.5 -119.5q-35 -96 -82 -201.5t-103 -209t-121.5 -197.5t-137.5 -168q-18 -18 -50 -51t-70 -64t-74.5 -54.5t-63.5 -23.5 q-10 0 -21.5 4.5t-11.5 18.5q88 33 161 92t133 131t111.5 153t98.5 156q-47 -70 -99.5 -149.5t-113.5 -153.5t-133 -132t-158 -85l-10 33q-8 -4 -22.5 -10.5t-24.5 -6.5q-18 0 -38 9.5t-20 31.5zM426 1085v9v-9zM426 1100q2 4 2 6q0 -2 -2 -6zM428 1108v8v-8zM662 352l12 17 zM1204 203q0 111 30 210t75 199q43 43 67 99q6 -6 15.5 -9.5t19.5 -6.5t17.5 -8t7.5 -15q0 -8 -5.5 -18.5t-9.5 -16.5l62 2q6 6 18 17.5t23 11.5q23 0 35 -14.5t12 -37.5q0 -43 -17.5 -90t-38 -99t-38 -107.5t-17.5 -114.5q37 -4 74 -6t74 -9q0 41 21.5 76t31.5 37l47 -14 l-2 -8h23q12 16 33.5 25t41.5 9q35 0 47.5 -20.5t12.5 -50.5l-2 -164q-2 -47 -18.5 -90t-16.5 -90v-6q0 -23 8 -48q-14 -18 -31 -20q-4 18 -6 38.5t-2 41.5v76q0 12 2 24q-6 -27 -8 -61q-2 -39 -2 -68v-16l2 -39l-33 -8l4 -15q-33 -39 -86 -39q-18 0 -22 37t-4 72v25l-4 -29 q-6 -47 -7 -94q-23 8 -29.5 25.5t-6.5 37.5v10l2 45l20 7q0 4 -1 14t-3 21.5t-5 20.5t-7 9l-27 23q-23 -2 -42 -3t-38 -1q-61 0 -111.5 12t-85 43t-54 81t-19.5 124v36q0 20 2 39l-12 2q-4 -23 -6.5 -43t-2.5 -43q0 -100 28 -152t76 -75.5t114 -28.5q29 -2 57 -4h-51 q-68 2 -119 23.5t-82 69t-31 139.5zM1272 125q12 -49 46 -73.5t78 -34t91 -11.5t88 -4q-39 4 -84 8q-47 4 -90 14.5t-78 34t-51 66.5zM1419 170q6 -6 22.5 -11t37 -7t39 -3.5t26.5 -1.5h21q12 1 22 3q-41 4 -84 10t-84 10zM1491 -29q41 -2 84 -4q-43 2 -84 4zM1651 -84 q4 14 4 37q-2 -20 -4 -41v4z" />
<glyph unicode="&#xbd;" horiz-adv-x="1974" d="M102 1458q0 31 27 53.5t69 40t92 30.5t97 25.5t85 23.5t54 28l203 -84q-10 -92 -24.5 -181t-30 -177.5t-25.5 -177.5t-10 -181q0 -8 1 -20.5t1 -24.5q0 -18 -5 -32.5t-22 -14.5l-10 2q4 139 14.5 265t34.5 261q-33 -133 -40 -260t-21 -264l-33 2v-39q-8 -14 -20.5 -24.5 t-28.5 -10.5q-20 0 -36.5 14.5t-27.5 30.5q18 82 27.5 164t14 164t6.5 165t10 165q-23 -160 -32 -318.5t-40 -318.5q-20 35 -20 67q0 53 6 103.5t10 101.5l23 8q-2 16 -5.5 22.5t-3.5 23.5q0 80 13.5 170t23.5 165l-18 -8q-8 -90 -15 -176q-6 -82 -16 -168q8 84 10 166 q4 86 13 174q-61 -29 -127 -51.5t-125 -50.5l-27 53q8 14 21.5 23.5t29.5 13.5l-10 20q-10 -2 -21.5 -3t-21.5 -1q-23 0 -41 8.5t-29 32.5zM346 -10q2 33 21.5 74.5t45 82.5t52.5 81t43 71l20 -12q27 63 78 135t112.5 146.5t125 153.5t110.5 159q0 -2 -4 -2q-6 0 -6 6 q-100 -123 -195.5 -246t-183.5 -252q33 61 68 114.5t76 106.5q33 45 84 106.5t109.5 131t116.5 145.5t105 148.5t77 139.5t30 118q8 -4 18 -4q8 0 17 2l16 4q18 -10 18 -33q0 -25 -6 -45l21 -4q6 10 14 31.5t20.5 43t26 37t27.5 15.5t23.5 -11.5t14.5 -25.5t7 -30.5t2 -24.5 q0 -125 -58.5 -249t-144.5 -239.5t-182 -220t-172 -192.5q-18 -20 -50 -67.5t-71 -108t-80 -126t-77.5 -120t-63.5 -91t-37 -40.5l-18 10q88 135 167.5 278.5t184.5 268.5l20 24q-37 -33 -88 -106.5t-104 -158.5t-103.5 -167t-85.5 -131l-26 18q-6 -20 -27.5 -39.5 t-44.5 -19.5q-31 0 -37 27.5t-6 52.5v8q59 63 119.5 151.5t119 182.5t116 188.5t110.5 169.5q-61 -80 -117.5 -164.5t-112 -171t-112.5 -170t-123 -159.5zM1133 82q43 29 109.5 83t131 117.5t113.5 129t59 114.5q-20 4 -44.5 9.5t-43.5 5.5q-18 0 -40.5 -10.5t-45 -24.5 t-43 -29.5t-37.5 -23.5q0 16 -13 25t-13 26q0 16 26.5 32.5t38.5 22.5l-12 19q-18 -6 -36.5 -10.5t-37.5 -4.5q-23 0 -39 8.5t-22 30.5l2 19q8 35 42 63.5t77 49t87 31.5t74 11q55 0 114.5 -14t109 -44t80 -77t30.5 -113q0 -72 -25.5 -130t-66.5 -107t-94 -89t-111 -75 q8 0 34 3t55.5 6t57 5t44.5 2q31 0 58.5 -6t37.5 -24q-37 -6 -74 -10.5t-74 -4.5l142 -6q-4 -12 -4 -14q0 -14 14 -19.5t31.5 -9.5t32 -11t14.5 -26q0 -25 -19.5 -40t-35.5 -27q-45 10 -90.5 11t-92.5 1q-68 0 -137 -2q-61 -2 -123 -4h68h82q68 0 136.5 -4t133.5 -15 q-23 -10 -44 -17t-44 -7h-233l-19 22q-92 -12 -186 -12h-107q-4 41 -11 82t-17 82zM1161 -90l172 -4l-170 -4zM1214 72q16 6 31 17t27 24l-2 8q-16 -12 -29.5 -21.5t-26.5 -27.5zM1245 -43l80 -8l-2 6zM1294 139q8 0 25.5 15.5t37 34t36.5 36.5l4 4q-21 -18 -41 -34 q-33 -27 -62 -56z" />
<glyph unicode="&#xbe;" horiz-adv-x="1822" d="M102 930q0 23 25 38t49 19q74 -37 147.5 -51t155.5 -14q74 0 109 17t35 42q0 35 -17 53q-16 16 -37 27q31 -16 39 -39q8 -25 8 -47q0 -2 -10 -10.5t-29.5 -17.5t-46 -16t-59.5 -7q-68 0 -143.5 19.5t-128.5 49.5q18 6 43 6q53 0 110.5 -16t110.5 -16q6 0 13 1t13 1l3 -23 q4 0 19 4t32.5 10.5t31 12.5t13.5 10q0 47 -37 81t-84 42q-8 -4 -16.5 -7t-18.5 -7q55 -4 99 -37t44 -70q-8 -10 -23 -12t-32 -4q39 6 49 16q0 10 -7 25.5t-25.5 31t-48 26.5t-74.5 15h-80q-2 39 -2 62v59q0 6 2 13q37 0 77 29.5t40 103.5q-6 23 -21.5 31t-36.5 8 q-31 0 -63.5 -11.5t-38.5 -11.5q2 2 6 8q8 8 8 23q0 16 6 29.5t35 13.5l-2 22q-49 0 -68.5 -12t-28.5 -27.5t-19.5 -32t-37.5 -22.5q-8 0 -15 11.5t-7 52.5q0 55 25.5 87.5t61.5 50t74 23.5t62 6h19q31 0 81 -13t109 -73l8 -12q18 -18 38 -63t20 -97v-10q0 -12 -3.5 -30.5 t-15.5 -37t-37.5 -36t-70.5 -29.5q88 -10 142 -35.5t82 -57.5t37 -63.5t9 -52.5q0 -61 -26.5 -108t-71.5 -79t-101.5 -48.5t-113.5 -16.5q-47 0 -107.5 6.5t-115 16.5t-92.5 24.5t-38 30.5q0 8 7 14q41 -14 80.5 -23t80.5 -15q-84 16 -155 49q12 12 12 26q-41 23 -53.5 34 t-12.5 30zM319 788l11 -2zM330 786q32 -6 57 -6q-18 2 -37 4q-10 0 -20 2zM422 147q0 31 10 65t25.5 67.5t35 66.5t35.5 62l33 14q37 80 86 145.5t103.5 128t108.5 124t102 130.5l-11 6q-49 -61 -101 -121.5t-103.5 -123t-102.5 -129.5q-49 -63 -94 -138q61 113 139 211 q78 102 161 198.5t164 191t152 194.5q37 53 73 88t65 86q4 -8 12 -11t17 -6t16.5 -8.5t7.5 -15.5t-5 -23.5t-22 -33.5l19 -10q37 35 64.5 49t47.5 14q12 -2 21.5 -10t9.5 -25q0 -31 -12.5 -63.5t-30.5 -65.5t-42 -65.5t-46 -63.5q-94 -123 -186.5 -241.5t-196.5 -221.5 q-86 -84 -153.5 -178t-131.5 -192q-10 -16 -18 -41l-15 -49q-6 -25 -13 -44.5t-13 -25.5q-12 -14 -23 -14q-6 0 -14 4q39 154 117 277.5t188 236.5q-111 -102 -190.5 -233.5t-124.5 -274.5q-16 8 -29 8q-8 -23 -18 -39q-10 -14 -21.5 -25.5t-21.5 -11.5q-20 0 -35 20.5 t-25 43.5l8 22q57 180 156 338q92 143 211 289q-111 -129 -207 -272q-106 -160 -176 -351q-6 20 -6 47zM739 877q12 16 20.5 38.5t8.5 51.5l4 18q0 18 -6 39q-4 20 -12 43q6 -23 6 -39q0 -12 -1 -22.5t-1 -20.5v-41q0 -41 -19 -67zM1061 121q0 111 29.5 210t74.5 199 q43 43 68 99q6 -6 15 -9.5t19.5 -6.5t17.5 -8t7 -15q0 -8 -5 -18.5t-9 -16.5l61 2q6 6 18.5 17.5t22.5 11.5q23 0 35 -14.5t12 -36.5q0 -43 -17 -90.5t-37.5 -99.5t-38 -107.5t-17.5 -114.5q37 -4 73.5 -6t73.5 -8q0 41 21.5 75.5t32.5 36.5l47 -14l-2 -8h22q12 16 33.5 25 t42.5 9q35 0 47 -20t12 -51l-2 -164q-2 -47 -18.5 -90t-16.5 -90v-6q0 -23 9 -48q-14 -18 -31 -20q-4 18 -6 38.5t-2 41.5v76q0 12 2 24q-6 -27 -8 -61q-2 -39 -2 -68v-16l2 -39l-33 -8l4 -15q-33 -39 -86 -39q-18 0 -22.5 37t-4.5 72v25l-4 -29q-6 -47 -6 -94 q-23 8 -30 25.5t-7 37.5v10l2 45l21 7q0 4 -1 14t-3 21.5t-5.5 20.5t-7.5 9l-26 23q-23 -2 -42.5 -3t-37.5 -1q-61 0 -111.5 12t-85.5 43t-54.5 81t-19.5 124v37q0 20 3 38l-13 3q-4 -23 -6 -43.5t-2 -42.5q0 -100 27.5 -152.5t76 -76t113.5 -27.5q29 -2 57 -5h-51 q-68 2 -119 23.5t-81.5 69t-30.5 139.5zM1128 43q12 -49 46 -72.5t78 -33t92.5 -10.5t91.5 -3q-41 4 -88.5 7t-90.5 13.5t-78 33t-51 65.5zM1276 88q6 -6 22.5 -11t37 -7t39 -3t26.5 -1h20q13 0 23 2q-41 4 -84 10t-84 10zM1348 -111q41 -2 84 -4q-43 2 -84 4zM1507 -166 q4 14 4 37q-2 -20 -4 -41v4z" />
<glyph unicode="&#xbf;" horiz-adv-x="1044" d="M102 -94q0 80 21.5 135t53.5 93t72 63.5t75.5 43t63.5 33t38 35.5q0 12 4 29.5t4 32.5q0 33 -24.5 51t-55.5 18l4 25q-4 12 -4 18q0 27 31 27q10 0 21.5 -4t21.5 -8l8 20q-12 8 -34.5 18.5t-44 21.5t-37 25.5t-17.5 32.5q6 12 19.5 19.5t31 12.5t33.5 6t27 1 q55 0 104 -23.5t86 -63.5t59.5 -90t22.5 -103q0 -82 -16.5 -135.5t-44 -89t-61.5 -57t-69.5 -40t-70.5 -40t-62 -56.5v-4l3 -4q0 -10 -5.5 -22.5t-5.5 -22.5q0 -37 13 -70q23 -12 58.5 -30.5t74.5 -37t74.5 -30.5t60.5 -12t45 10t36.5 22.5t31 22.5t26.5 10l23 -14 q-47 -47 -89 -66.5t-108 -19.5l33 -2h8q49 0 88 24.5t74 52.5l22 -24q14 16 33.5 32.5t42.5 16.5t32 -20.5t9 -38.5q0 -43 -41 -78t-96 -58.5t-112.5 -36t-90.5 -12.5t-63.5 11.5t-61.5 17.5q41 -16 77 -25.5t83 -9.5q84 0 155.5 37t135.5 88q-16 -41 -49 -72.5t-74 -52 t-86 -31t-88 -10.5q-35 0 -65.5 7.5t-63.5 13.5l6 22q-55 8 -93 23.5t-71 35t-65.5 41t-75.5 42.5q-29 47 -51.5 97t-22.5 109q0 55 8 98.5t26.5 79t49.5 67.5t76 67q-6 2 -6 6l2 4q-53 -33 -86 -71t-53.5 -75.5t-27.5 -75.5t-7 -71q0 -90 27.5 -153.5t75.5 -108.5t114 -74 t141 -51q-74 16 -139 43q-68 29 -118 74t-80 108.5t-30 149.5zM209 -276q25 -41 67 -68q41 -25 82 -41q-41 20 -73 51q-33 31 -76 58zM303 979q41 80 127 80h21q14 -8 41.5 -23.5t44.5 -15.5q4 0 12 4q4 -10 6 -19.5t2 -19.5q-39 0 -78 27q14 -14 27.5 -18.5t24 -7.5 t18.5 -12t12 -34h4q6 -16 12.5 -33.5t6.5 -36.5q0 -10 -2 -20t-7 -21q-35 29 -81 29l-21 -2q31 -8 50.5 -15t47.5 -26q-4 -16 -12 -24l-33 10v22q-16 -4 -18 -4q-12 0 -20.5 5t-22.5 5q-18 0 -19 -20q23 0 40.5 -1t37.5 -7q-8 2 -16 2h-12q-23 0 -44.5 -3t-45.5 -3l-5 -2 l-10 22l8 2q-10 16 -14 34.5t-8 35.5l4 -2q-4 14 -13.5 38.5t-27.5 24.5l-12 2q-6 6 -13.5 12.5t-11.5 14.5zM334 -186v-2q0 -4 11 -17.5t15 -15.5q-18 19 -26 35zM520 -291l6 -2l47 -12z" />
<glyph unicode="&#xc0;" horiz-adv-x="1585" d="M41 -61q0 39 14.5 99t36 130t48 144.5t50.5 146.5q-23 14 -48 20t-56 10q6 8 6 20.5t2 25t8.5 20.5t22.5 8q4 0 25 -4v19q-33 16 -50.5 38.5t-17.5 45.5q0 49 94 49q27 0 54.5 -3t56.5 -8l94 215q31 70 66.5 144t85 145.5t112 136t143.5 115.5l31 12q57 -14 93 -23 t59 -13q20 -8 33 -11h-3l3 -6q0 -2 -3 -4l25 -43q133 -223 225 -462.5t158 -471.5q16 -51 40 -109.5t45.5 -110.5t35.5 -94t14 -61q0 -14 -6 -17t-16 -3q-53 133 -101 262q-47 127 -92 256q41 -129 86 -256q47 -129 94 -262h-14q-12 0 -16 -12q4 -4 10 -21.5t12 -37 t10.5 -40t4.5 -30.5q0 -45 -27 -45q-14 0 -22.5 6t-18.5 16l-21 21q-12 12 -30 24l-197 565q43 -133 85 -266t87 -262q-33 39 -60.5 94t-51 116.5t-44 126t-40.5 122.5q0 -4 1 -7t1 -8q0 -33 -21 -49l-18 -18l-13 6q-86 23 -182 29t-196 26q98 -20 192 -31.5t186 -41.5 q-29 -18 -61 -19q-39 4 -77 12.5t-81 12.5q0 12 6 18q-59 0 -117.5 12.5t-113.5 27.5t-107.5 28.5t-97.5 13.5q0 -6 -2 -6q53 -10 100.5 -28.5t106.5 -28.5q57 -14 111.5 -20.5t107.5 -16.5q-86 8 -175 24.5t-175 36.5l-96 25q-51 -131 -103.5 -257t-101.5 -255 q-4 8 -13.5 9t-18.5 1t-17 5t-8 22q0 16 8 45.5t30 78.5q-4 4 -13 5.5t-13 1.5q-41 -86 -79 -132.5t-60 -46.5q-25 0 -25 48zM547 662l35 -9q31 -8 60.5 -17t51.5 -20q45 -23 119 -35t144.5 -23t123 -24.5t52.5 -37.5l-250 28q23 -4 55.5 -9t66 -11t66.5 -11.5t55 -9.5 q0 -6 -1 -11t-1 -9t5.5 -5t12.5 -2t13 -5q6 -2 12 -13l-41 109q4 0 12.5 3t12.5 3q-68 170 -134.5 329.5t-146.5 307.5l-12 -12l31 -56q72 -131 129 -270t108 -287q-59 160 -127.5 318.5t-146.5 287.5l-8 -4q-70 -72 -130.5 -172t-113.5 -204zM635 1807q4 10 6 23.5t4 25.5 q4 18 17 18q2 0 10 -4l8 21q-12 16 -18.5 36.5t-6.5 36.5q2 10 4.5 21.5t8.5 17.5q6 2 18 8.5t23 6.5q57 0 114.5 -35t106.5 -83t87 -99.5t56 -81.5q6 -12 22.5 -14.5t16.5 -14.5q0 -16 -8 -33q-45 23 -74.5 56.5t-58.5 80.5q23 -49 57.5 -85.5t69.5 -59.5q-4 -8 -7 -15 t-5 -18q10 0 12 -9t2 -19q0 -27 -13.5 -48.5t-29.5 -31.5l-8 6q-61 51 -108.5 95t-98.5 95q35 -47 85 -98t116 -106q-16 -10 -33 -11q-10 0 -23.5 8.5t-27 19.5t-25.5 23l-21 21l15 16q-29 14 -49.5 37t-37 45.5t-34.5 42t-43 29.5q0 -4 -8 -8q41 -31 74 -72q33 -39 73 -82 q-29 29 -67 66q-43 41 -84 77.5t-73 63.5t-44 31zM682 985q4 0 3 -5t1 -5q4 0 24.5 28.5t47 65.5t51.5 69.5t35 43.5l-10 14q-43 -41 -80 -96.5t-72 -114.5zM797 1276l4 -4l16 -43l-2 43q-4 0 -9 2t-9 2zM840 1202l12 -16l12 12l-10 14zM874 1229l9 -12h2l-11 14v-2z M889 1206q66 -111 121 -231q53 -119 100 -238q-39 119 -94 238q-57 121 -125 231h-2zM901 1251q27 -6 37 -12t14 -6l2 6q2 0 -8 2t-16 4l4 8l-25 9zM903 1569q4 -4 8 -6q-4 2 -8 6zM1069 1214q74 -155 133 -315q63 -164 125 -334q-57 166 -121 328q-59 160 -137 321z" />
<glyph unicode="&#xc1;" horiz-adv-x="1585" d="M41 -61q0 39 14.5 99t36 130t48 144.5t50.5 146.5q-23 14 -48 20t-56 10q6 8 6 20.5t2 25t8.5 20.5t22.5 8q4 0 25 -4v19q-33 16 -50.5 38.5t-17.5 45.5q0 49 94 49q27 0 54.5 -3t56.5 -8l94 215q31 70 66.5 144t85 145.5t112 136t143.5 115.5l31 12q57 -14 93 -23 t59 -13q20 -8 33 -11h-3l3 -6q0 -2 -3 -4l25 -43q133 -223 225 -462.5t158 -471.5q16 -51 40 -109.5t45.5 -110.5t35.5 -94t14 -61q0 -14 -6 -17t-16 -3q-53 133 -101 262q-47 127 -92 256q41 -129 86 -256q47 -129 94 -262h-14q-12 0 -16 -12q4 -4 10 -21.5t12 -37 t10.5 -40t4.5 -30.5q0 -45 -27 -45q-14 0 -22.5 6t-18.5 16l-21 21q-12 12 -30 24l-197 565q43 -133 85 -266t87 -262q-33 39 -60.5 94t-51 116.5t-44 126t-40.5 122.5q0 -4 1 -7t1 -8q0 -33 -21 -49l-18 -18l-13 6q-86 23 -182 29t-196 26q98 -20 192 -31.5t186 -41.5 q-29 -18 -61 -19q-39 4 -77 12.5t-81 12.5q0 12 6 18q-59 0 -117.5 12.5t-113.5 27.5t-107.5 28.5t-97.5 13.5q0 -6 -2 -6q53 -10 100.5 -28.5t106.5 -28.5q57 -14 111.5 -20.5t107.5 -16.5q-86 8 -175 24.5t-175 36.5l-96 25q-51 -131 -103.5 -257t-101.5 -255 q-4 8 -13.5 9t-18.5 1t-17 5t-8 22q0 16 8 45.5t30 78.5q-4 4 -13 5.5t-13 1.5q-41 -86 -79 -132.5t-60 -46.5q-25 0 -25 48zM490 1657q0 35 23.5 49t56.5 31l24 -13q23 23 50.5 37.5t55.5 26.5t53.5 26.5t47.5 38.5q-4 0 -4 9q-47 -31 -94 -56q-45 -25 -94 -51 q76 45 149 92q76 47 174 99q6 -2 21 -3q27 0 49 13q4 -14 14.5 -30.5t10.5 -31.5q0 -14 -19 -16l10 -21q27 -4 51.5 -28.5t24.5 -46.5q0 -29 -19.5 -45.5t-54.5 -28.5q-29 -14 -66.5 -37.5t-81.5 -48.5t-92 -47.5t-100 -32.5q-12 -4 -24.5 -20.5t-22.5 -16.5t-18 7.5 t-14 15.5q90 70 196 102q-53 -10 -104 -37.5t-99 -56.5q-4 8 -9 15t-11 12l-12 -11q-33 8 -51.5 36t-18.5 52l8 4q53 23 120 62t124 74q-61 -29 -121.5 -64t-132.5 -59zM547 662l35 -9q31 -8 60.5 -17t51.5 -20q45 -23 119 -35t144.5 -23t123 -24.5t52.5 -37.5l-250 28 q23 -4 55.5 -9t66 -11t66.5 -11.5t55 -9.5q0 -6 -1 -11t-1 -9t5.5 -5t12.5 -2t13 -5q6 -2 12 -13l-41 109q4 0 12.5 3t12.5 3q-68 170 -134.5 329.5t-146.5 307.5l-12 -12l31 -56q72 -131 129 -270t108 -287q-59 160 -127.5 318.5t-146.5 287.5l-8 -4q-70 -72 -130.5 -172 t-113.5 -204zM682 985q4 0 3 -5t1 -5q4 0 24.5 28.5t47 65.5t51.5 69.5t35 43.5l-10 14q-43 -41 -80 -96.5t-72 -114.5zM797 1276l4 -4l16 -43l-2 43q-4 0 -9 2t-9 2zM840 1202l12 -16l12 12l-10 14zM874 1229l9 -12h2l-11 14v-2zM889 1206q66 -111 121 -231 q53 -119 100 -238q-39 119 -94 238q-57 121 -125 231h-2zM901 1251q27 -6 37 -12t14 -6l2 6q2 0 -8 2t-16 4l4 8l-25 9zM1069 1214q74 -155 133 -315q63 -164 125 -334q-57 166 -121 328q-59 160 -137 321z" />
<glyph unicode="&#xc2;" horiz-adv-x="1585" d="M41 -61q0 39 14.5 99t36 130t48 144.5t50.5 146.5q-23 14 -48 20t-56 10q6 8 6 20.5t2 25t8.5 20.5t22.5 8q4 0 25 -4v19q-33 16 -50.5 38.5t-17.5 45.5q0 49 94 49q27 0 54.5 -3t56.5 -8l94 215q31 70 66.5 144t85 145.5t112 136t143.5 115.5l31 12q57 -14 93 -23 t59 -13q20 -8 33 -11h-3l3 -6q0 -2 -3 -4l25 -43q133 -223 225 -462.5t158 -471.5q16 -51 40 -109.5t45.5 -110.5t35.5 -94t14 -61q0 -14 -6 -17t-16 -3q-53 133 -101 262q-47 127 -92 256q41 -129 86 -256q47 -129 94 -262h-14q-12 0 -16 -12q4 -4 10 -21.5t12 -37 t10.5 -40t4.5 -30.5q0 -45 -27 -45q-14 0 -22.5 6t-18.5 16l-21 21q-12 12 -30 24l-197 565q43 -133 85 -266t87 -262q-33 39 -60.5 94t-51 116.5t-44 126t-40.5 122.5q0 -4 1 -7t1 -8q0 -33 -21 -49l-18 -18l-13 6q-86 23 -182 29t-196 26q98 -20 192 -31.5t186 -41.5 q-29 -18 -61 -19q-39 4 -77 12.5t-81 12.5q0 12 6 18q-59 0 -117.5 12.5t-113.5 27.5t-107.5 28.5t-97.5 13.5q0 -6 -2 -6q53 -10 100.5 -28.5t106.5 -28.5q57 -14 111.5 -20.5t107.5 -16.5q-86 8 -175 24.5t-175 36.5l-96 25q-51 -131 -103.5 -257t-101.5 -255 q-4 8 -13.5 9t-18.5 1t-17 5t-8 22q0 16 8 45.5t30 78.5q-4 4 -13 5.5t-13 1.5q-41 -86 -79 -132.5t-60 -46.5q-25 0 -25 48zM547 662l35 -9q31 -8 60.5 -17t51.5 -20q45 -23 119 -35t144.5 -23t123 -24.5t52.5 -37.5l-250 28q23 -4 55.5 -9t66 -11t66.5 -11.5t55 -9.5 q0 -6 -1 -11t-1 -9t5.5 -5t12.5 -2t13 -5q6 -2 12 -13l-41 109q4 0 12.5 3t12.5 3q-68 170 -134.5 329.5t-146.5 307.5l-12 -12l31 -56q72 -131 129 -270t108 -287q-59 160 -127.5 318.5t-146.5 287.5l-8 -4q-70 -72 -130.5 -172t-113.5 -204zM582 1765q0 23 23.5 55.5 t53 62.5t56.5 53.5t33 27.5l158 135q37 -59 61.5 -94t39.5 -56.5t24.5 -33.5t13.5 -25q8 -23 22.5 -54.5t26.5 -61t21.5 -54t9.5 -32.5q-1 -17 -15 -31q-47 41 -79.5 88t-49.5 106q10 -59 45 -110t76 -92l-12 -13q-6 -6 -10 -14q2 -2 6 -4t5 -3t5 -3q0 -41 -21.5 -58.5 t-50.5 -27.5l-8 8q-43 55 -65.5 131t-55.5 141l-6 -6q14 -29 27.5 -65.5t28 -75.5t28.5 -75t33 -62q-6 -2 -16 -2q-14 0 -23.5 12t-17 30.5t-14.5 38t-17 33.5l4 31q-8 6 -15.5 20.5t-13.5 31t-12 31.5t-12 26q-2 -2 -3 -4.5t-6 -4.5q6 -10 11.5 -24.5t10.5 -30.5t10 -31.5 t9 -23.5q-6 8 -10 22q-6 14 -12 29l-10 31q-4 16 -11 24q-37 -55 -67.5 -85.5t-42.5 -45.5q-10 12 -29.5 22.5t-19.5 24.5q0 10 14 23l-18 14q-10 -4 -18.5 -6t-16.5 -2q-31 0 -54.5 16.5t-23.5 42.5zM682 985q4 0 3 -5t1 -5q4 0 24.5 28.5t47 65.5t51.5 69.5t35 43.5 l-10 14q-43 -41 -80 -96.5t-72 -114.5zM797 1276l4 -4l16 -43l-2 43q-4 0 -9 2t-9 2zM840 1202l12 -16l12 12l-10 14zM874 1229l9 -12h2l-11 14v-2zM889 1206q66 -111 121 -231q53 -119 100 -238q-39 119 -94 238q-57 121 -125 231h-2zM901 1251q27 -6 37 -12t14 -6l2 6 q2 0 -8 2t-16 4l4 8l-25 9zM1069 1214q74 -155 133 -315q63 -164 125 -334q-57 166 -121 328q-59 160 -137 321z" />
<glyph unicode="&#xc3;" horiz-adv-x="1585" d="M41 -61q0 39 14.5 99t36 130t48 144.5t50.5 146.5q-23 14 -48 20t-56 10q6 8 6 20.5t2 25t8.5 20.5t22.5 8q4 0 25 -4v19q-33 16 -50.5 38.5t-17.5 45.5q0 49 94 49q27 0 54.5 -3t56.5 -8l94 215q31 70 66.5 144t85 145.5t112 136t143.5 115.5l31 12q57 -14 93 -23 t59 -13q20 -8 33 -11h-3l3 -6q0 -2 -3 -4l25 -43q133 -223 225 -462.5t158 -471.5q16 -51 40 -109.5t45.5 -110.5t35.5 -94t14 -61q0 -14 -6 -17t-16 -3q-53 133 -101 262q-47 127 -92 256q41 -129 86 -256q47 -129 94 -262h-14q-12 0 -16 -12q4 -4 10 -21.5t12 -37 t10.5 -40t4.5 -30.5q0 -45 -27 -45q-14 0 -22.5 6t-18.5 16l-21 21q-12 12 -30 24l-197 565q43 -133 85 -266t87 -262q-33 39 -60.5 94t-51 116.5t-44 126t-40.5 122.5q0 -4 1 -7t1 -8q0 -33 -21 -49l-18 -18l-13 6q-86 23 -182 29t-196 26q98 -20 192 -31.5t186 -41.5 q-29 -18 -61 -19q-39 4 -77 12.5t-81 12.5q0 12 6 18q-59 0 -117.5 12.5t-113.5 27.5t-107.5 28.5t-97.5 13.5q0 -6 -2 -6q53 -10 100.5 -28.5t106.5 -28.5q57 -14 111.5 -20.5t107.5 -16.5q-86 8 -175 24.5t-175 36.5l-96 25q-51 -131 -103.5 -257t-101.5 -255 q-4 8 -13.5 9t-18.5 1t-17 5t-8 22q0 16 8 45.5t30 78.5q-4 4 -13 5.5t-13 1.5q-41 -86 -79 -132.5t-60 -46.5q-25 0 -25 48zM403 1882l12 37q12 37 45 81t90.5 81t147.5 37q70 0 113 -33t65.5 -75t29.5 -83t7 -59q0 -31 -3 -60.5t-5 -44.5q0 -8 10 -8q27 0 43 33t27.5 72.5 t19.5 73.5t19 34l14 -2q-6 -39 -20.5 -83t-34 -82t-40 -63.5t-36.5 -25.5l-19 18q2 -6 8.5 -13t10.5 -7q18 0 38.5 23.5t41 60.5t37 82t24.5 88l23 -6q2 0 7 10t13 22.5t19.5 22.5t23.5 10q18 0 32.5 -14t29.5 -31q-16 -51 -25.5 -90t-28.5 -92q-6 -10 -20.5 -41t-43 -63.5 t-72.5 -59t-107 -26.5q-51 0 -87 7t-61 31l-12 15q23 -43 73 -51.5t97 -8.5q55 0 100 28t79 71t57.5 92t37.5 92l25 76q14 -33 14 -60q0 -49 -25.5 -103t-52.5 -101l-24 -2q-8 -18 -24.5 -40t-42 -40.5t-62.5 -30.5t-86 -12q-70 0 -114 18.5t-67 44.5l-10 17 q-27 27 -32 62.5t-5 57.5v45q0 23 -2 33q-10 -16 -14 -33.5t-4 -62.5q0 -20 7 -47t32 -64l14 -16q35 -41 84 -54.5t113 -13.5q23 0 45 4.5t37 6.5q-16 -6 -35 -9.5t-41 -5.5q-45 0 -78 5.5t-57.5 14.5t-43 22.5t-36.5 31.5l-10 12q-27 27 -33 64t-6 61q0 20 1 35.5t1 30.5 q-25 -16 -45.5 -33.5t-38.5 -42.5l-47 45q0 18 26 43l-16 14q-18 -10 -35.5 -17t-34.5 -7q-27 0 -42 17.5t-15 33.5zM547 662l35 -9q31 -8 60.5 -17t51.5 -20q45 -23 119 -35t144.5 -23t123 -24.5t52.5 -37.5l-250 28q23 -4 55.5 -9t66 -11t66.5 -11.5t55 -9.5q0 -6 -1 -11 t-1 -9t5.5 -5t12.5 -2t13 -5q6 -2 12 -13l-41 109q4 0 12.5 3t12.5 3q-68 170 -134.5 329.5t-146.5 307.5l-12 -12l31 -56q72 -131 129 -270t108 -287q-59 160 -127.5 318.5t-146.5 287.5l-8 -4q-70 -72 -130.5 -172t-113.5 -204zM682 985q4 0 3 -5t1 -5q4 0 24.5 28.5 t47 65.5t51.5 69.5t35 43.5l-10 14q-43 -41 -80 -96.5t-72 -114.5zM797 1276l4 -4l16 -43l-2 43q-4 0 -9 2t-9 2zM840 1202l12 -16l12 12l-10 14zM874 1229l9 -12h2l-11 14v-2zM889 1206q66 -111 121 -231q53 -119 100 -238q-39 119 -94 238q-57 121 -125 231h-2zM901 1251 q27 -6 37 -12t14 -6l2 6q2 0 -8 2t-16 4l4 8l-25 9zM1042 1587q25 20 45 35q20 14 33 31q-27 -35 -78 -66zM1069 1214q74 -155 133 -315q63 -164 125 -334q-57 166 -121 328q-59 160 -137 321z" />
<glyph unicode="&#xc4;" horiz-adv-x="1585" d="M41 -61q0 39 14.5 99t36 130t48 144.5t50.5 146.5q-23 14 -48 20t-56 10q6 8 6 20.5t2 25t8.5 20.5t22.5 8q4 0 25 -4v19q-33 16 -50.5 38.5t-17.5 45.5q0 49 94 49q27 0 54.5 -3t56.5 -8l94 215q31 70 66.5 144t85 145.5t112 136t143.5 115.5l31 12q57 -14 93 -23 t59 -13q20 -8 33 -11h-3l3 -6q0 -2 -3 -4l25 -43q133 -223 225 -462.5t158 -471.5q16 -51 40 -109.5t45.5 -110.5t35.5 -94t14 -61q0 -14 -6 -17t-16 -3q-53 133 -101 262q-47 127 -92 256q41 -129 86 -256q47 -129 94 -262h-14q-12 0 -16 -12q4 -4 10 -21.5t12 -37 t10.5 -40t4.5 -30.5q0 -45 -27 -45q-14 0 -22.5 6t-18.5 16l-21 21q-12 12 -30 24l-197 565q43 -133 85 -266t87 -262q-33 39 -60.5 94t-51 116.5t-44 126t-40.5 122.5q0 -4 1 -7t1 -8q0 -33 -21 -49l-18 -18l-13 6q-86 23 -182 29t-196 26q98 -20 192 -31.5t186 -41.5 q-29 -18 -61 -19q-39 4 -77 12.5t-81 12.5q0 12 6 18q-59 0 -117.5 12.5t-113.5 27.5t-107.5 28.5t-97.5 13.5q0 -6 -2 -6q53 -10 100.5 -28.5t106.5 -28.5q57 -14 111.5 -20.5t107.5 -16.5q-86 8 -175 24.5t-175 36.5l-96 25q-51 -131 -103.5 -257t-101.5 -255 q-4 8 -13.5 9t-18.5 1t-17 5t-8 22q0 16 8 45.5t30 78.5q-4 4 -13 5.5t-13 1.5q-41 -86 -79 -132.5t-60 -46.5q-25 0 -25 48zM420 1751q0 14 13.5 24.5t30.5 17.5t35.5 10t29.5 3q4 0 23.5 -5t44 -12t48 -12.5t35.5 -5.5q4 0 10 1t11 1q10 0 10 -22q0 -4 -1 -9t-1 -10 q-27 6 -72 11.5t-74 17.5q14 -8 34 -13t40.5 -8t38.5 -7.5t31 -10.5q0 -8 -1 -16t-1 -17l6 -2q2 -8 2 -22q0 -18 -3 -35.5t-7 -34.5l-5 -18l-2 4q-6 8 -28.5 18.5t-38.5 10.5q-4 0 -13.5 -1t-19.5 -1t-19.5 -1.5t-11.5 -1.5q12 -2 32 -3t39 -6t35.5 -12t22.5 -22 q-8 -23 -10 -22l-10 6q-2 2 -8 4l-6 25q-4 -4 -15 -4q-4 0 -16 1t-25.5 3t-25 3t-17.5 1q-14 0 -22 -10q2 -4 2 -13q14 6 33 6q6 0 17 -1t25.5 -2t25.5 -3t18 -4q-16 4 -27 4q-12 0 -30.5 -2t-39.5 -6l-39 -6q-18 -2 -30 -4h-9q-6 10 -13 15t-13 13.5t-9 19.5t-3 34q0 8 8 8 l-2 23q-14 14 -23.5 44.5t-9.5 55.5zM547 662l35 -9q31 -8 60.5 -17t51.5 -20q45 -23 119 -35t144.5 -23t123 -24.5t52.5 -37.5l-250 28q23 -4 55.5 -9t66 -11t66.5 -11.5t55 -9.5q0 -6 -1 -11t-1 -9t5.5 -5t12.5 -2t13 -5q6 -2 12 -13l-41 109q4 0 12.5 3t12.5 3 q-68 170 -134.5 329.5t-146.5 307.5l-12 -12l31 -56q72 -131 129 -270t108 -287q-59 160 -127.5 318.5t-146.5 287.5l-8 -4q-70 -72 -130.5 -172t-113.5 -204zM682 985q4 0 3 -5t1 -5q4 0 24.5 28.5t47 65.5t51.5 69.5t35 43.5l-10 14q-43 -41 -80 -96.5t-72 -114.5z M797 1276l4 -4l16 -43l-2 43q-4 0 -9 2t-9 2zM840 1202l12 -16l12 12l-10 14zM874 1229l9 -12h2l-11 14v-2zM889 1206q66 -111 121 -231q53 -119 100 -238q-39 119 -94 238q-57 121 -125 231h-2zM897 1726q0 35 14.5 46.5t36.5 11.5q10 0 20.5 -1t20.5 -1q16 0 24.5 5 t27.5 5q6 0 24.5 -6t41 -14.5t45 -14.5t36.5 -6q6 0 12 2t10 2q14 0 16.5 -13.5t2.5 -27.5h-23h-14q14 -4 23 -12q12 -10 12 -33h10q4 -10 6 -23.5t2 -25.5q0 -18 -3 -32.5t-7 -31.5l-6 4q-10 6 -28.5 11.5t-37 9.5t-35 6t-22.5 2q-10 0 -18.5 -1t-18.5 -1q41 -8 81 -11 t79 -32v-6q0 -6 2 -10t2 -7l-2 -2q-12 4 -31.5 6.5t-32.5 6.5l-8 20q-16 -4 -24 -4q-20 0 -41 7t-41 7q-10 0 -22.5 -4t-12.5 -16q10 2 18 2h21q20 0 39 -4l24 -4h-12h-24q-37 0 -63 -2t-64 -2h-13q-10 12 -17 14t-12.5 4t-7.5 10.5t-2 32.5q0 12 1 22.5t10 10.5l6 -2v22 q-12 12 -18.5 35t-6.5 45zM901 1251q27 -6 37 -12t14 -6l2 6q2 0 -8 2t-16 4l4 8l-25 9zM1069 1214q74 -155 133 -315q63 -164 125 -334q-57 166 -121 328q-59 160 -137 321zM1088 1743q16 -10 32 -15l9 -2q-4 2 -9 2q-14 7 -32 15zM1122 1536q7 -2 13 -2q-6 0 -13 2z" />
</font>
</defs>
</svg>
