<?xml version="1.0" standalone="no"?>
<!DOCTYPE svg PUBLIC "-//W3C//DTD SVG 1.1//EN" "http://www.w3.org/Graphics/SVG/1.1/DTD/svg11.dtd" >
<svg xmlns="http://www.w3.org/2000/svg">
<metadata></metadata>
<defs>
<font id="chivoregular" horiz-adv-x="1259" >
<font-face units-per-em="2048" ascent="1638" descent="-410" />
<missing-glyph horiz-adv-x="499" />
<glyph horiz-adv-x="2048" />
<glyph horiz-adv-x="2048" />
<glyph unicode="&#xd;" horiz-adv-x="681" />
<glyph unicode=" "  horiz-adv-x="499" />
<glyph unicode="&#x09;" horiz-adv-x="499" />
<glyph unicode="&#xa0;" horiz-adv-x="499" />
<glyph unicode="!" horiz-adv-x="550" d="M160 1405h235q-6 -47 -51 -1049h-135q-47 999 -49 1049zM174 0v227h207v-227h-207z" />
<glyph unicode="&#x22;" horiz-adv-x="745" d="M131 1104v301h168v-301l-43 -270h-80zM446 1104v301h168v-301q-29 -164 -45 -270h-80z" />
<glyph unicode="#" horiz-adv-x="1316" d="M57 367v155h260l70 318h-248v155h283l96 430h156l-96 -430h307l96 430h156l-97 -430h215v-155h-249l-70 -318h238v-155h-273l-82 -367h-155l81 367h-307l-82 -367h-155l82 367h-226zM473 522h307l70 318h-307z" />
<glyph unicode="$" horiz-adv-x="1118" d="M63 428l3 37h194l-2 -39q0 -109 82 -160t209 -51q311 0 311 199q0 80 -56 122t-142.5 69.5t-184.5 50t-184 63.5t-142.5 110.5t-56.5 174.5q0 102 32 165.5t87 106.5q106 86 289 98l-23 182h150l-23 -182q182 -8 295 -96q119 -92 119 -264v-25h-195v29q0 90 -74.5 136 t-189.5 46t-193.5 -40t-78.5 -126q0 -98 121 -151q53 -25 121.5 -42.5t139 -37t139.5 -45t124 -66.5q119 -90 119 -250q0 -199 -127 -303q-115 -92 -320 -100l23 -174h-150l21 176q-309 20 -402 217q-35 72 -35 170z" />
<glyph unicode="%" horiz-adv-x="1431" d="M61 936v219q0 104 68 176q70 72 180 72h15q111 0 180 -72q68 -72 67 -176v-219q0 -104 -67 -174q-70 -74 -180 -74h-15q-111 0 -180 74q-68 70 -68 174zM193 922q0 -51 32.5 -86t91.5 -35t91 34.5t32 86.5v247q0 51 -31.5 86t-91.5 35q-59 0 -91.5 -34.5t-32.5 -86.5 v-247zM219 0l856 1405h139l-852 -1405h-143zM860 246v219q0 104 68 174q70 74 180 74h14q111 0 181 -74q68 -70 67 -174v-219q0 -104 -67 -176q-70 -72 -181 -72h-14q-111 0 -180 72q-68 72 -68 176zM991 231q0 -51 33 -85.5t92 -34.5t91 34.5t32 85.5v248q0 51 -31.5 86 t-91.5 35q-59 0 -92 -35t-33 -86v-248z" />
<glyph unicode="&#x26;" horiz-adv-x="1355" d="M119 395q0 252 258 330l6 4q-98 43 -164.5 116t-66.5 181q0 109 37.5 180.5t100 120.5t146.5 73.5t160 24.5t143 -14v-186q-59 18 -114 18q-57 0 -107.5 -13t-87.5 -38q-80 -57 -80 -162q0 -92 76 -158q80 -63 201 -63h252l57 293h139v-293h221v-182h-221v-627h-461 q-211 0 -348 94q-147 104 -147 301zM319 406q0 -115 95 -173q86 -51 229 -51h231v445h-233q-154 0 -238 -55.5t-84 -165.5z" />
<glyph unicode="'" horiz-adv-x="430" d="M131 1104v301h168v-301l-45 -270h-80z" />
<glyph unicode="(" horiz-adv-x="591" d="M100 541q0 240 84 462t242 402h106q-184 -293 -243 -633q-20 -117 -21 -229q0 -115 20.5 -231.5t55.5 -227.5q68 -211 188 -406h-106q-158 180 -242 401.5t-84 461.5z" />
<glyph unicode=")" horiz-adv-x="589" d="M59 -322q182 289 242 633q20 117 21 232q0 113 -20.5 229.5t-55.5 226.5q-70 217 -187 406h107q158 -180 242 -402.5t84 -459.5q0 -240 -84 -462t-242 -403h-107z" />
<glyph unicode="*" horiz-adv-x="958" d="M59 1042l52 158l317 -135l-27 340h162l-33 -342l324 133l47 -160l-338 -78l223 -256l-131 -100l-180 295l-178 -291l-131 99l227 256z" />
<glyph unicode="+" d="M104 436v172h439v439h170v-439h440v-172h-440v-436h-170v436h-439z" />
<glyph unicode="," horiz-adv-x="487" d="M141 0v227h207v-174l-72 -307h-106l55 254h-84z" />
<glyph unicode="-" horiz-adv-x="800" d="M141 453v200h518v-200h-518z" />
<glyph unicode="." horiz-adv-x="489" d="M141 0v227h207v-227h-207z" />
<glyph unicode="/" horiz-adv-x="1228" d="M31 -350l1003 1755h164l-1001 -1755h-166z" />
<glyph unicode="0" d="M145 453v497q0 207 134.5 341t334.5 134h27q199 0 336 -135q135 -131 135 -340v-497q0 -205 -135 -340q-133 -133 -336 -133h-27q-205 0 -335 133q-133 137 -134 340zM346 438q0 -121 80 -196q82 -80 203 -80q123 0 202.5 80t79.5 196v529q0 117 -79.5 196.5t-202.5 79.5 q-121 0 -203 -80q-80 -76 -80 -196v-529z" />
<glyph unicode="1" d="M199 1137v131q240 25 495 137h78v-1223h369v-182h-938v182h368v955h-372z" />
<glyph unicode="2" d="M143 0v49q0 129 74 240q47 72 117 123l407 307q135 106 154 219q6 35 6 68q0 31 -10 70.5t-39 76.5q-74 90 -215 90q-176 0 -250 -127q-43 -74 -43 -143v-29q0 -12 2 -24h-201q-2 14 -2 20v16q0 133 72 256q72 125 227 183q82 31 205 30q123 0 211 -41t141 -102 q102 -115 103 -268q0 -129 -37 -199q-68 -125 -213 -237l-391 -299q-51 -35 -75 -60.5t-24 -36.5h746v-182h-965z" />
<glyph unicode="3" d="M119 397v17h200v-23q0 -113 76 -171t217 -58q139 0 223.5 57t84.5 178q0 123 -97 181q-78 45 -219 45h-153v184h157q188 0 256 123q23 41 23 98t-22.5 98t-61.5 68q-70 49 -191 49q-178 0 -239 -123q-20 -41 -21 -94v-18h-200v36q0 172 131 277q133 104 329 104h19 q199 0 325 -102q131 -109 131 -279q0 -125 -63 -197.5t-160 -117.5l2 -6q111 -35 182.5 -120t71.5 -226q0 -176 -139 -287q-137 -111 -350 -110h-25q-229 0 -360 116q-127 111 -127 301z" />
<glyph unicode="4" d="M102 346v184q279 418 437 895h215q-70 -252 -232 -546q-127 -231 -229 -351h471v408q72 139 110 281h91v-689h178v-182h-178v-346h-201v346h-662z" />
<glyph unicode="5" d="M145 438h201q4 -123 88 -200q78 -76 197 -76q123 0 200 76q84 80 84 223q0 121 -75 198q-80 84 -201 84q-176 0 -264 -141l-180 27l57 776h790v-182h-622l-31 -412q131 104 266 104q133 0 217 -38.5t140 -102.5q104 -123 104 -319q0 -211 -132 -343t-353 -132 q-217 0 -352 135q-129 129 -134 323z" />
<glyph unicode="6" d="M162 457v495q0 197 138 335t335 138q209 0 340 -122q133 -127 133 -334h-201q0 129 -74.5 201.5t-197.5 72.5q-113 0 -193 -80t-80 -192v-221q127 135 318 135q186 0 317 -123q133 -125 133 -309q0 -219 -141 -351q-135 -123 -342 -122q-207 0 -344 126 q-141 135 -141 351zM362 432q0 -121 84 -196q80 -74 201 -74q119 0 201 74q82 73 82 196t-82 197t-201 73q-121 0 -201 -73q-84 -76 -84 -197z" />
<glyph unicode="7" d="M150 1223v182h987v-109q-358 -422 -490 -854q-49 -168 -49 -338v-47q0 -20 4 -57h-233q0 580 512 1223h-731z" />
<glyph unicode="8" d="M137 379q0 135 65.5 214t172.5 124v8q-96 57 -129 104q-61 88 -62 193q0 104 33 177t92 124q123 102 320 102t319 -102q125 -106 125 -289q0 -170 -115 -258q-35 -27 -75 -51v-8q106 -49 171.5 -125t65.5 -213q0 -186 -127 -292.5t-364 -106.5q-221 0 -355 102 q-137 104 -137 297zM338 393q0 -59 22.5 -102t61.5 -72q82 -57 207 -57t207 57q84 61 84 174t-84 176q-80 57 -207 58q-201 0 -269 -131q-23 -45 -22 -103zM385 1026q0 -92 65.5 -154.5t178.5 -62.5t178 62.5t65 154.5t-65.5 154.5t-177.5 62.5q-113 0 -178.5 -62.5 t-65.5 -154.5z" />
<glyph unicode="9" d="M129 952q0 219 141 351q135 123 342 122q207 0 342 -127q143 -135 144 -350v-495q0 -197 -138.5 -335t-334.5 -138q-209 0 -338 122q-135 127 -135 334h200q0 -129 75 -201.5t198 -72.5q113 0 192.5 80t79.5 192v221q-127 -135 -317 -135q-186 0 -318 123 q-133 125 -133 309zM330 973q0 -123 82 -197t200 -74q121 0 203 74q82 76 82 197t-82 196q-82 74 -203 74q-119 0 -200 -74q-82 -73 -82 -196z" />
<glyph unicode=":" horiz-adv-x="489" d="M141 0v227h207v-227h-207zM141 817v230h207v-230h-207z" />
<glyph unicode=";" horiz-adv-x="489" d="M141 0v227h207v-174l-72 -307h-106l55 254h-84zM141 817v230h207v-230h-207z" />
<glyph unicode="&#x3c;" d="M90 410v219l1043 403v-184l-879 -328l879 -327v-185z" />
<glyph unicode="=" d="M113 217v170h1032v-170h-1032zM113 651v172h1032v-172h-1032z" />
<glyph unicode="&#x3e;" d="M127 8v185q219 82 437.5 162.5t439.5 164.5q-639 238 -877 328v184l1042 -403v-219z" />
<glyph unicode="?" horiz-adv-x="1028" d="M53 1016q0 51 21.5 123.5t72.5 136.5q125 150 357 149h12q229 0 344 -153q49 -63 67.5 -131t18.5 -133q0 -68 -23.5 -129.5t-58.5 -106.5t-77 -77.5t-76 -63.5q-82 -76 -82 -152v-100h-205v131q0 96 84 182q35 37 76 70t75 69q84 88 84 189q0 82 -53 143q-68 80 -188 80 q-137 0 -203 -90q-43 -59 -43 -139l4 -76h-201q-6 25 -6 78zM420 0v227h213v-227h-213z" />
<glyph unicode="@" horiz-adv-x="1812" d="M78 549q0 231 69.5 401t188.5 275q223 203 604 202q573 0 750 -419q61 -147 61 -336q0 -190 -37 -307t-92 -189q-106 -131 -254 -131q-156 0 -192 107q-10 33 -15 71l-6 -6q-113 -172 -340 -172q-223 0 -295 139q-27 53 -26 152q0 98 48 163.5t134 100.5q139 55 475 55 v90q0 76 -29 109q-57 70 -196 70q-133 0 -189 -68q-31 -39 -30 -88v-23h-177q-4 20 -4 64q0 43 31 94t84 88q109 76 289 76h18q197 0 291 -79t94 -222v-502q0 -78 76 -78q150 0 201 240q20 92 20 250q0 156 -51 280.5t-141 204.5q-176 154 -500 154q-348 0 -541 -193 q-199 -199 -198 -577q0 -379 162.5 -562.5t506.5 -183.5q115 0 212.5 25.5t125.5 40.5v-123q-96 -37 -200.5 -46t-137.5 -9q-573 0 -735 469q-55 160 -55 393zM674 324q0 -135 203 -136q111 0 188 76q86 82 86 213v37q-242 0 -327 -26.5t-117.5 -61.5t-32.5 -102z" />
<glyph unicode="A" horiz-adv-x="1335" d="M8 0l549 1405h221l549 -1405h-217l-119 305h-672l-116 -305h-195zM391 487h531l-258 676h-13z" />
<glyph unicode="B" horiz-adv-x="1333" d="M188 0v1405h623q154 0 262 -100q106 -100 107 -244q0 -141 -80 -232q-59 -66 -166 -96v-10q174 -29 250 -191q28 -61 28 -143v-6q0 -86 -30.5 -154.5t-83.5 -117.5q-113 -111 -275 -111h-635zM389 182h402q92 0 156.5 64.5t64.5 156.5t-64.5 157t-156.5 65h-402v-443z M389 807h381q84 0 148 61q61 57 61 146q0 86 -61.5 147.5t-147.5 61.5h-381v-416z" />
<glyph unicode="C" horiz-adv-x="1357" d="M127 610v185q0 307 164 475q153 155 411 155h3q240 0 385 -139q158 -147 157 -420h-200q0 188 -97 289q-88 88 -245 88q-270 0 -349 -244q-28 -83 -28 -196v-8v-185q0 -340 223 -422q68 -26 143 -26h6q80 0 144.5 21.5t109.5 66.5q100 100 101 285h192q0 -272 -162 -420 q-145 -135 -380 -135q-262 0 -414 155q-164 166 -164 475z" />
<glyph unicode="D" horiz-adv-x="1382" d="M188 0v1405h488q254 0 409 -156q172 -168 172 -475v-143q0 -307 -172 -475q-156 -156 -409 -156h-488zM389 182h287q270 0 352 244q29 84 29 205v143q0 340 -230 422q-70 27 -151 27h-287v-1041z" />
<glyph unicode="E" horiz-adv-x="1214" d="M188 0v1405h922l-27 -182h-694v-414h629v-182h-629v-445h707l28 -182h-936z" />
<glyph unicode="F" horiz-adv-x="1126" d="M188 0v1405h885l-26 -182h-658v-428h574v-183h-574v-612h-201z" />
<glyph unicode="G" horiz-adv-x="1386" d="M127 610v185q0 307 164 475q153 155 411 155h3q233 0 378 -127q160 -141 160 -387h-201q0 168 -98 256q-86 76 -239 76q-270 0 -349 -244q-28 -83 -28 -196v-8v-185q0 -340 223 -422q67 -26 148 -26h6q176 0 259 88t83 285v26h-398v180h594v-479q0 -170 12 -262h-118 q-25 76 -41 168q-131 -188 -391 -188q-262 0 -414 155q-164 166 -164 475z" />
<glyph unicode="H" horiz-adv-x="1419" d="M188 0v1405h201v-596h641v596h201v-1405h-201v627h-641v-627h-201z" />
<glyph unicode="I" horiz-adv-x="745" d="M109 0v182h163v1041h-163v182h528v-182h-164v-1041h164v-182h-528z" />
<glyph unicode="J" horiz-adv-x="1077" d="M59 383v43h201v-55q0 -92 62.5 -150.5t158.5 -58.5q94 0 155.5 56t61.5 153v1034h201v-1022q0 -195 -121 -301q-113 -102 -295 -102h-18q-283 0 -375 227q-31 76 -31 176z" />
<glyph unicode="K" horiz-adv-x="1275" d="M188 0v1405h201v-731l610 731h232l-516 -621l532 -784h-233l-426 631l-199 -209v-422h-201z" />
<glyph unicode="L" horiz-adv-x="1097" d="M188 0v1405h201v-1223h645l29 -182h-875z" />
<glyph unicode="M" horiz-adv-x="1921" d="M188 0v1405h316l452 -1106h9l454 1106h314v-1405h-201v1169h-12l-486 -1169h-170l-483 1169h-10v-1169h-183z" />
<glyph unicode="N" horiz-adv-x="1421" d="M188 0v1405h177l679 -1016l7 2v1014h182v-1405h-170l-686 1028l-6 -2v-1026h-183z" />
<glyph unicode="O" horiz-adv-x="1413" d="M125 610v185q0 307 170 475q159 155 409 155h3q252 0 411 -155q170 -168 170 -475v-185q0 -307 -170 -475q-159 -155 -408 -155h-3q-252 0 -412 155q-170 168 -170 475zM326 610q0 -340 227 -422q68 -26 148 -26h6q82 0 152.5 25.5t119.5 78.5q109 115 108 344v185 q0 340 -227 422q-69 26 -147 26h-6q-84 0 -154 -25.5t-119 -78.5q-109 -115 -108 -344v-185z" />
<glyph unicode="P" horiz-adv-x="1277" d="M188 0v1405h607q178 0 297 -111q122 -116 122 -296q0 -185 -122 -302q-118 -110 -294 -110h-3h-406v-586h-201zM389 768h387q96 0 168 68q70 66 70 159q0 94 -68 160q-72 68 -170 68h-387v-455z" />
<glyph unicode="Q" horiz-adv-x="1413" d="M125 610v185q0 307 170 475q159 155 409 155h3q252 0 411 -155q170 -168 170 -475v-185q0 -270 -133 -434q-121 -152 -332 -186q14 -57 49 -84q66 -49 154 -49q92 0 215 49l25 8v-143q-121 -68 -244 -68q-125 0 -191.5 26.5t-109.5 67.5q-76 74 -96 187q-223 27 -357 178 q-143 166 -143 448zM326 610q0 -340 227 -422q67 -26 148 -26h6q82 0 152.5 25.5t119.5 78.5q109 115 108 344v185q0 340 -227 422q-69 26 -147 26h-6q-84 0 -154 -25.5t-119 -78.5q-109 -115 -108 -344v-185z" />
<glyph unicode="R" horiz-adv-x="1372" d="M188 0v1405h598q289 0 392 -193q35 -66 34 -137q0 -74 -19 -129t-54 -102q-72 -98 -178 -119v-10q135 -51 196 -205q29 -72 29 -162q0 -92 7 -139t19 -76q25 -51 78 -70v-57q-47 -18 -96 -18q-41 0 -84 12q-74 20 -106 121q-18 51 -19 145q0 94 -23.5 165t-60.5 114 q-62 73 -154 73h-2h-356v-618h-201zM389 801h399q90 0 158 59q66 59 66 148v8q0 88 -60.5 147.5t-163.5 59.5h-399v-422z" />
<glyph unicode="S" horiz-adv-x="1284" d="M106 399l3 41h200l-2 -43q0 -121 91 -178t245 -57t243 56t89 155q0 98 -61.5 144t-154.5 75t-201.5 53.5t-202 69.5t-155 120.5t-61.5 190.5t40 186.5t108 118.5q133 94 356 94q217 0 350 -92q145 -100 146 -301v-24h-201v30q0 100 -82 152.5t-209 52.5q-215 0 -282 -102 q-25 -35 -25 -84q0 -82 61.5 -125t154.5 -72t201.5 -54.5t202 -69.5t155 -118.5t61.5 -197.5q0 -125 -41 -208t-113 -134q-137 -98 -381 -98q-371 0 -491 225q-43 80 -44 194z" />
<glyph unicode="T" horiz-adv-x="1183" d="M51 1223v182h1082v-182h-441v-1223h-200v1223h-441z" />
<glyph unicode="U" horiz-adv-x="1392" d="M176 449v956h201v-952q0 -127 86 -207q92 -84 237 -84t230.5 81t85.5 210v952h201v-956q0 -213 -140 -343q-138 -126 -364 -126h-4h-27q-229 0 -367 126q-139 127 -139 343z" />
<glyph unicode="V" horiz-adv-x="1234" d="M10 1405h215l396 -1133h12l397 1133h195l-500 -1405h-215z" />
<glyph unicode="W" horiz-adv-x="1875" d="M29 1405h215l297 -1059h12l299 1059h195l296 -1059h13l299 1059h194l-411 -1405h-205l-287 1016h-14l-297 -1016h-205z" />
<glyph unicode="X" horiz-adv-x="1292" d="M18 0l512 727l-464 676h241l344 -502q72 100 135.5 191.5t111.5 160t77 109.5l29 41h223l-39 -55q-68 -98 -203 -290t-223 -319l510 -739h-242l-389 565l-399 -565h-224z" />
<glyph unicode="Y" horiz-adv-x="1171" d="M-10 1405h229l375 -653h8l371 653h207l-494 -862v-543h-201v543z" />
<glyph unicode="Z" horiz-adv-x="1220" d="M66 0v78l747 1145h-698v182h1005v-78l-749 -1145h766v-182h-1071z" />
<glyph unicode="[" horiz-adv-x="600" d="M174 -330v1735h346v-113h-180v-1509h180v-113h-346z" />
<glyph unicode="\" horiz-adv-x="1228" d="M31 1405h164l1003 -1755h-166z" />
<glyph unicode="]" horiz-adv-x="600" d="M80 -217h180v1509h-180v113h346v-1735h-346v113z" />
<glyph unicode="^" horiz-adv-x="1220" d="M100 0l404 1047h211l403 -1047h-172q-100 252 -336 862l-338 -862h-172z" />
<glyph unicode="_" horiz-adv-x="1421" d="M199 -131h1024v-123h-1024v123z" />
<glyph unicode="`" horiz-adv-x="681" d="M139 1468l2 7h183l194 -297h-143z" />
<glyph unicode="a" horiz-adv-x="1198" d="M98 291q0 104 51.5 172.5t143.5 105.5q147 59 506 60v96q0 80 -29 115q-62 73 -207 73h-4q-143 0 -201 -69q-33 -41 -32 -94v-25h-189q-4 20 -4 68q0 45 33 100t90 94q123 80 307 80h19q209 0 309 -83t100 -236v-543q0 -39 17.5 -55.5t40.5 -16.5q49 0 94 29v-142 q-66 -40 -154 -40h-4q-92 0 -133 53t-45 135q-125 -188 -367 -188q-238 0 -313 147q-29 59 -29 164zM291 274q0 -141 215 -141q115 0 203 80q90 84 90 225v41q-262 0 -350.5 -27.5t-123 -65.5t-34.5 -112z" />
<glyph unicode="b" horiz-adv-x="1193" d="M170 0v1475h192v-562q45 63 125 108.5t179 45.5q98 0 172.5 -33t130.5 -98q119 -141 118 -389v-23q0 -270 -124 -413q-113 -131 -299 -131q-234 0 -353 186l-67 -166h-74zM360 522q0 -307 158 -370q49 -18 109 -19q268 0 268 389q0 309 -160 371q-49 20 -108 20 q-127 0 -193 -84q-74 -96 -74 -307z" />
<glyph unicode="c" horiz-adv-x="1114" d="M104 498v49q0 242 132 383q125 137 327 137h17q190 0 312 -118t122 -314h-191q0 193 -143 258q-47 20 -107 20q-61 0 -111 -20.5t-87 -61.5q-78 -84 -78 -235v-111q0 -182 76 -267t207 -85q129 0 189 78t60 199h185q0 -203 -123 -320q-118 -110 -306 -110h-3h-17 q-207 0 -329 135q-131 141 -132 383z" />
<glyph unicode="d" horiz-adv-x="1193" d="M106 524v23q0 248 119 389q111 131 305 131q195 0 301 -154v562h193v-1475h-143q-10 39 -27 143q-116 -163 -321 -163h-3q-186 0 -299 131q-125 143 -125 413zM299 522q0 -307 158 -370q49 -18 108 -19q268 0 269 389q0 309 -160 371q-49 20 -109 20q-127 0 -192 -84 q-74 -96 -74 -307z" />
<glyph unicode="e" horiz-adv-x="1138" d="M104 502v41q0 244 134 387q125 137 337 137h15q195 0 315 -119q123 -119 123 -323v-146h-731q6 -242 162 -319q53 -27 135 -27q80 0 131 31t78 72q43 66 43 153h182q0 -186 -123 -299q-122 -110 -312 -110h-3h-8q-215 0 -344 135q-133 143 -134 387zM301 629h537v24 q0 123 -76 195q-69 65 -182 65q-115 0 -189 -70.5t-90 -213.5z" />
<glyph unicode="f" horiz-adv-x="692" d="M96 893v154h115v141q0 303 244 303q115 0 192 -39v-141q-61 26 -101 26h-3q-43 0 -63.5 -4t-37.5 -18q-39 -29 -39 -107v-161h244v-154h-244v-893h-192v893h-115z" />
<glyph unicode="g" horiz-adv-x="1163" d="M117 12.5q43 63.5 110 91.5q-94 59 -94 170q0 76 44 128.5t120 78.5q-137 78 -137 256q0 145 102 234q111 96 320 96h8q117 0 209 -35q145 72 166 203h163q0 -102 -55 -174t-153 -92l-5 -6q102 -88 103 -226q0 -141 -103 -231q-109 -96 -309 -96h-139q-61 0 -102 -32 t-41 -81t38.5 -78t104.5 -29h395q123 0 195 -75q72 -76 71 -193q0 -145 -112 -229q-104 -78 -277 -78h-411q-106 0 -181 78q-73 77 -73 166q0 90 43 153.5zM264 -113q0 -49 35 -83.5t84 -34.5h395q66 0 113 37.5t47 87.5q0 49 -34 80.5t-99 31.5h-422q-49 0 -84 -34.5 t-35 -84.5zM350 737q0 -96 68.5 -135t169.5 -39q100 0 169.5 39t69.5 135t-69.5 136t-169.5 40t-169 -40t-69 -136z" />
<glyph unicode="h" horiz-adv-x="1214" d="M170 0v1475h192v-560q129 152 324 152q256 0 340 -199q29 -70 29 -163v-705h-193v670q0 133 -61.5 188t-159.5 55q-111 0 -195 -84t-84 -206v-623h-192z" />
<glyph unicode="i" horiz-adv-x="532" d="M166 1296v179h201v-179h-201zM170 0v1047h192v-1047h-192z" />
<glyph unicode="j" horiz-adv-x="532" d="M-70 -199q66 -30 105 -30h2q39 0 60.5 5t37.5 19q35 33 35 115v1137h192v-1078q0 -182 -56 -266t-200 -84q-106 0 -176 39v143zM166 1296v179h201v-179h-201z" />
<glyph unicode="k" horiz-adv-x="1095" d="M170 0v1475h192v-1012l467 584h211l-403 -508l430 -539h-233l-314 389l-158 -164v-225h-192z" />
<glyph unicode="l" horiz-adv-x="548" d="M178 0v1475h193v-1475h-193z" />
<glyph unicode="m" horiz-adv-x="1775" d="M170 0v1047h139l27 -154q121 174 330 174q207 0 286 -174q76 106 159 140t163 34q78 0 139.5 -21.5t106.5 -66.5q96 -92 96 -274v-705h-193v670q0 243 -186 243h-2q-100 0 -173 -84t-73 -206v-623h-192v670q0 243 -187 243h-2q-100 0 -173 -84t-73 -206v-623h-192z" />
<glyph unicode="n" horiz-adv-x="1214" d="M170 0v1047h139l27 -154q133 174 350 174q256 0 340 -199q29 -70 29 -163v-705h-193v670q0 133 -61.5 188t-159.5 55q-111 0 -195 -84t-84 -206v-623h-192z" />
<glyph unicode="o" horiz-adv-x="1175" d="M106 485v76q0 248 142 381q129 125 340 125t340 -125q141 -133 141 -381v-76q0 -248 -141 -383q-128 -122 -337 -122h-3q-211 0 -340 122q-141 135 -142 383zM299 504q0 -188 84 -285q74 -86 205 -86q203 0 266 203q23 70 23 168v39q0 188 -84 284q-74 86 -205 86 q-203 0 -266 -200q-23 -72 -23 -170v-39z" />
<glyph unicode="p" horiz-adv-x="1193" d="M170 -371v1418h143q10 -39 27 -144q117 164 324 164q186 0 299 -129q125 -145 124 -416v-22q0 -248 -118 -389q-111 -131 -305 -131h-3q-194 0 -299 153v-504h-192zM360 524q0 -309 160 -372q49 -18 109 -19q127 0 192 84q74 96 74 307q0 307 -158 369q-49 20 -108 20 q-129 0 -195 -84q-74 -96 -74 -305z" />
<glyph unicode="q" horiz-adv-x="1193" d="M106 500v22q0 270 125 416q113 129 299 129q234 0 353 -186l67 166h74v-1416h-193v502q-45 -63 -124.5 -108t-178.5 -45q-98 0 -172.5 32.5t-130.5 98.5q-119 141 -119 389zM299 524q0 -309 160 -372q49 -18 108 -19q127 0 193 84q74 96 74 307q0 307 -158 369 q-49 20 -109 20q-129 0 -194 -84q-74 -96 -74 -305z" />
<glyph unicode="r" horiz-adv-x="1003" d="M170 0v1047h137l29 -156q31 92 168 149q59 27 137 27t134 -25.5t95 -70.5q80 -91 80 -232l-6 -77h-170v45q0 72 -37 116q-68 90 -166 90q-109 0 -163 -94q-45 -78 -46 -194v-625h-192z" />
<glyph unicode="s" horiz-adv-x="1093" d="M92 283l2 45h191v-21q0 -129 164 -164q49 -10 129 -10t151.5 38t71.5 108t-50.5 101.5t-126 48.5t-162.5 31.5t-163 46.5t-126 88t-50 161q0 145 114.5 228t313.5 83h18q182 0 293 -84q106 -82 107 -201l-2 -37h-191v19q0 149 -228 149h-3q-186 0 -221 -92q-8 -25 -9 -45 q0 -57 50.5 -85.5t126 -45t162.5 -32t163 -48.5q176 -74 176 -250q0 -178 -129 -262q-113 -73 -310 -73h-5h-31q-209 0 -321 94q-105 86 -105 209z" />
<glyph unicode="t" horiz-adv-x="708" d="M88 893v154h121l65 333h121v-333h244v-154h-244v-625q0 -117 74 -133q20 -6 43 -6q53 0 127 31v-144q-72 -36 -184 -36h-6q-119 0 -182.5 69.5t-63.5 229.5v614h-115z" />
<glyph unicode="u" horiz-adv-x="1265" d="M160 342v705h192v-670q0 -133 61.5 -188.5t159.5 -55.5q111 0 195 84t84 207v623h192v-842q0 -39 17.5 -55.5t40.5 -16.5q47 0 92 29v-142q-60 -40 -126 -40h-3q-70 0 -103.5 14t-56.5 39q-39 43 -43 119q-80 -117 -227 -158q-49 -14 -115 -14q-68 0 -135.5 21.5 t-118.5 64.5q-106 96 -106 276z" />
<glyph unicode="v" horiz-adv-x="1048" d="M25 1047h204l299 -801h9l299 801h188l-397 -1047h-205z" />
<glyph unicode="w" horiz-adv-x="1660" d="M41 1047h199l243 -766h9l247 766h189l243 -766h9l247 766h189l-342 -1047h-201l-242 731h-8l-237 -731h-201z" />
<glyph unicode="x" horiz-adv-x="1062" d="M37 0l385 530l-365 517h230l252 -357l258 357h211l-367 -504l385 -543h-229l-273 383l-276 -383h-211z" />
<glyph unicode="y" horiz-adv-x="1048" d="M25 1047h204l301 -773h9l297 773h188l-391 -1006q-86 -211 -143.5 -282.5t-115 -105.5t-134.5 -34q-80 0 -144 29v157q61 -28 100 -28h3q39 0 65.5 7t54.5 32q70 59 113 194z" />
<glyph unicode="z" horiz-adv-x="948" d="M74 0v78l510 815h-480v154h746v-76l-512 -817h528v-154h-792z" />
<glyph unicode="{" horiz-adv-x="645" d="M82 459v162q104 0 143 61q14 23 15 55v381q0 242 202 277q57 10 121 10v-102q-70 0 -100 -23q-61 -45 -62 -133q0 -90 -5 -188.5t-9 -198.5t-43 -155.5t-139 -55.5v-19q100 0 139 -55t43 -156q4 -100 9 -198t5 -170q0 -74 15.5 -101.5t38.5 -44.5q39 -29 108 -28v-103 q-150 0 -225 52q-98 68 -98 235v381q0 57 -52 90q-41 27 -106 27z" />
<glyph unicode="|" horiz-adv-x="507" d="M172 -408v1885h164v-1885h-164z" />
<glyph unicode="}" horiz-adv-x="645" d="M82 -223q70 0 100 22q61 45 62 135q0 88 5 186.5t9 198.5t43 155.5t139 55.5v19q-100 0 -139 55t-43 156q-4 100 -9 198.5t-5 171.5q0 72 -15.5 99.5t-38.5 44.5q-39 29 -108 29v102q150 0 225 -51q98 -68 99 -236v-381q0 -88 102 -110q27 -6 55 -6v-162q-102 0 -143 -62 q-14 -23 -14 -55v-381q0 -242 -201 -276q-59 -10 -123 -11v103z" />
<glyph unicode="~" horiz-adv-x="1411" d="M131 432v174q41 43 90 76q127 84 244 84q66 0 124 -21.5t116.5 -46t119 -46t129.5 -21.5q121 0 238 80q53 35 94 80v-175q-78 -86 -201 -135q-61 -25 -129 -24q-70 0 -128 21.5t-116.5 46t-119 46t-129.5 21.5q-113 0 -238 -80q-53 -37 -94 -80z" />
<glyph unicode="&#xa1;" horiz-adv-x="520" d="M141 -360l52 1046h135q4 -61 49 -1046h-236zM156 817v227h206v-227h-206z" />
<glyph unicode="&#xa2;" horiz-adv-x="1079" d="M98 678v49q0 229 117 371q113 135 299 147l-20 174h149l-22 -174q270 -27 358 -262q29 -76 29 -168h-191q0 193 -141 258q-49 20 -109 21q-61 0 -111 -20.5t-87 -61.5q-78 -84 -78 -236v-110q0 -182 75.5 -267.5t206.5 -85.5q129 0 189.5 78t60.5 199h185 q0 -188 -109 -303q-104 -113 -278 -125l22 -176h-149l20 176q-184 12 -299 147q-117 139 -117 369z" />
<glyph unicode="&#xa3;" horiz-adv-x="1222" d="M59 600v182h258v240q0 195 121 301q113 102 295 102h19q283 0 374 -227q31 -76 31 -176v-18h-201v30q0 92 -62.5 150.5t-156.5 58.5q-96 0 -157.5 -56.5t-61.5 -152.5v-252h383v-182h-383l-35 -418h621v-182h-971v182h184v418h-258z" />
<glyph unicode="&#xa4;" horiz-adv-x="1277" d="M127 272l109 109q-104 139 -105 307q0 166 102 309l-104 107l98 98l105 -106q143 102 309 102t307 -106l111 110l98 -98l-110 -111q100 -139 100 -303q0 -168 -105 -307l113 -111l-98 -98l-113 111q-137 -102 -305 -103q-166 0 -305 101l-109 -109zM272 690 q0 -152 107.5 -259t259.5 -107t259.5 107.5t107.5 258.5q0 152 -107.5 259.5t-259.5 107.5t-259.5 -107.5t-107.5 -259.5z" />
<glyph unicode="&#xa5;" horiz-adv-x="1298" d="M53 1405h230l374 -653h9l370 653h207l-289 -504h228v-131h-303l-84 -149h387v-132h-432v-489h-201v489h-428v132h383l-86 149h-297v131h221z" />
<glyph unicode="&#xa6;" horiz-adv-x="550" d="M184 0v545h183v-545h-183zM184 858v547h183v-547h-183z" />
<glyph unicode="&#xa7;" horiz-adv-x="1052" d="M78 537q0 203 174 307q-66 47 -108 110.5t-42 159.5q0 145 115 228t313 83h19q182 0 293 -84q106 -82 106 -200l-2 -37h-190v18q0 150 -232 150q-186 0 -221 -92q-8 -25 -8 -45q0 -72 50 -119t126 -85t163 -73t163 -80q176 -104 176 -270q0 -201 -176 -307 q152 -109 151 -262q0 -154 -114.5 -237t-313.5 -83h-18q-182 0 -293 84q-106 82 -107 201l2 37h191v-19q0 -150 231 -149q186 0 219 92q10 25 11 45q0 72 -50.5 119t-126 85t-162.5 72.5t-163 79.5q-176 105 -176 271zM268 592q0 -66 36 -111t92.5 -79.5t127 -64.5 t140.5 -63q119 80 118 181q0 106 -127 186q-57 35 -127.5 64.5t-140.5 62.5q-39 -23 -79 -67t-40 -109z" />
<glyph unicode="&#xa8;" horiz-adv-x="901" d="M166 1296v201h184v-201h-184zM551 1296v201h186v-201h-186z" />
<glyph unicode="&#xa9;" horiz-adv-x="1597" d="M74 705q0 150 56 280.5t154.5 229t230.5 154.5t284 56q150 0 281.5 -56t230 -154.5t156 -229.5t57.5 -280q0 -152 -57.5 -284t-156 -230.5t-230.5 -154.5t-281 -56q-152 0 -284 56t-230.5 154.5t-154.5 230.5t-56 284zM156 705q0 -276 184 -461q182 -182 459 -183 q270 0 454 183q187 182 187 458q0 137 -49.5 254t-137.5 203q-184 182 -454 182q-276 0 -459 -182q-184 -184 -184 -454zM453 614v177q0 168 102 262q94 86 244 86h10q233 0 309 -191q25 -66 25 -153h-137v26q0 96 -64 152q-55 49 -137 49q-145 0 -199 -113q-16 -37 -16 -88 v-235q0 -102 67 -156q59 -47 150 -47q88 0 145.5 57.5t57.5 165.5h133q0 -168 -96 -258q-92 -84 -236 -84h-10q-152 0 -246 86q-102 94 -102 264z" />
<glyph unicode="&#xaa;" horiz-adv-x="849" d="M113 946q0 133 116 176q94 37 310 37v58q0 115 -146 114q-86 0 -123 -43q-20 -23 -20 -55v-16h-113q-4 16 -4 28q0 82 74 131t188 49h11q250 0 249 -194v-330q0 -23 11.5 -33t25.5 -10t56 16v-86q-49 -25 -95 -24q-100 0 -110 115q-76 -115 -221 -115q-209 0 -209 182z M229 952q0 -53 33 -73.5t100 -20.5q66 0 121.5 48t55.5 136v27q-145 0 -227.5 -22.5t-82.5 -94.5z" />
<glyph unicode="&#xab;" horiz-adv-x="942" d="M100 690l250 357h105l-193 -357l193 -356h-105zM473 690l252 357h102l-190 -357l190 -356h-102z" />
<glyph unicode="&#xac;" horiz-adv-x="1263" d="M76 737v191h1063v-572h-172v381h-891z" />
<glyph unicode="&#xad;" horiz-adv-x="800" d="M141 453v200h518v-200h-518z" />
<glyph unicode="&#xae;" horiz-adv-x="1597" d="M74 705q0 150 56 280.5t154.5 229t230.5 154.5t284 56q150 0 281.5 -56t230 -154.5t156 -229.5t57.5 -280q0 -152 -57.5 -284t-156 -230.5t-230.5 -154.5t-281 -56q-152 0 -284 56t-230.5 154.5t-154.5 230.5t-56 284zM156 705q0 -276 184 -461q182 -182 459 -183 q272 0 458 183q185 182 185 461q0 137 -49.5 253.5t-135.5 202.5q-186 182 -458 182q-276 0 -459 -182q-184 -184 -184 -456zM504 276v844h383q92 0 162 -59q72 -59 71 -141q0 -82 -42 -135.5t-95 -73.5q82 -33 111 -146q12 -43 12 -98t8 -93t55 -55v-36q-31 -12 -61 -13 q-33 0 -55.5 6.5t-40.5 24.5q-37 41 -37 119q0 76 -13.5 118t-31.5 68q-37 47 -92 47h-203v-377h-131zM635 764h227q53 0 91 35t38 84v8q0 49 -38 83t-91 34h-227v-244z" />
<glyph unicode="&#xaf;" horiz-adv-x="942" d="M145 1356v151h652v-151h-652z" />
<glyph unicode="&#xb0;" horiz-adv-x="806" d="M96 1118q0 123 90 217q88 90 217 90q125 0 216.5 -91t91.5 -216q0 -129 -93 -217q-92 -90 -215 -90t-215 90q-92 88 -92 217zM211 1116q0 -78 55 -131q57 -53 137 -53q78 0 134 53q57 53 57 131t-57 131q-55 53 -136 53q-78 0 -135 -53q-55 -53 -55 -131z" />
<glyph unicode="&#xb1;" d="M104 573v172h439v302h170v-302h440v-172h-440v-299h-170v299h-439zM113 0v170h1030v-170h-1030z" />
<glyph unicode="&#xb2;" horiz-adv-x="786" d="M125 854v27q0 104 76 174q16 16 28 26l226 168q88 63 88 160q0 78 -72 115q-29 14 -80 14t-84 -21.5t-49 -48.5q-23 -41 -22 -79v-29h-109q-2 10 -2 22q0 10 6 52.5t33 87.5q72 117 235 116q129 0 199 -77q55 -66 55 -140t-25.5 -129t-113.5 -121l-215 -163 q-53 -41 -53 -54h409v-100h-530z" />
<glyph unicode="&#xb3;" horiz-adv-x="743" d="M86 1073v8h111v-12q0 -125 159 -125q78 0 124 32t46 101q0 68 -53 94.5t-121 26.5h-84v100h86q63 0 108.5 31t45.5 94q0 61 -44 88t-104 27q-61 0 -103 -29.5t-42 -89.5v-10h-111v21q0 96 72 152t182 56h11q106 0 177.5 -56t71.5 -152q1 -118 -122 -175q141 -51 141 -192 q0 -100 -76 -159.5t-192 -59.5h-15q-129 0 -198.5 62.5t-69.5 166.5z" />
<glyph unicode="&#xb4;" horiz-adv-x="681" d="M139 1178l193 297h184l2 -7l-237 -290h-142z" />
<glyph unicode="&#xb5;" horiz-adv-x="1253" d="M168 -330v1377h192v-670q0 -133 61.5 -188.5t160.5 -55.5q111 0 194.5 84t83.5 207v623h193v-842q0 -39 17 -55.5t40 -16.5q47 0 92 29v-142q-61 -41 -129 -40q-70 0 -103.5 14t-56.5 39q-39 43 -43 119q-80 -117 -227 -158q-49 -14 -102 -14q-109 0 -193 51l12 -97v-264 h-192z" />
<glyph unicode="&#xb6;" horiz-adv-x="1073" d="M51 956q0 184 129 318q129 131 318 131h487v-125h-135v-1626h-129v1626h-148v-1626h-129v858q-168 20 -280 145q-113 125 -113 299z" />
<glyph unicode="&#xb7;" horiz-adv-x="489" d="M141 475v230h207v-230h-207z" />
<glyph unicode="&#xb8;" horiz-adv-x="716" d="M143 -358l19 100q82 -41 149 -41q135 0 135 92q0 41 -31.5 62.5t-74.5 21.5h-43v88h49q227 0 227 -182q0 -100 -84 -150q-63 -37 -131 -36q-133 0 -215 45z" />
<glyph unicode="&#xb9;" horiz-adv-x="684" d="M102 864v101h203v518h-203v71q115 8 271 76h43v-665h166v-101h-480z" />
<glyph unicode="&#xba;" horiz-adv-x="802" d="M109 1071v47q0 152 84 234q80 74 208 73q129 0 209 -73q84 -82 84 -234v-47q0 -152 -84 -231q-80 -76 -209 -76t-208 76q-84 80 -84 231zM225 1083q0 -121 52.5 -173t123.5 -52q72 0 124.5 52.5t52.5 172.5v23q0 121 -52.5 173t-124.5 52t-124 -52t-52 -173v-23z" />
<glyph unicode="&#xbb;" horiz-adv-x="942" d="M115 334l192 356l-192 357h104l252 -357l-252 -356h-104zM489 334l191 356l-191 357h103l250 -357l-250 -356h-103z" />
<glyph unicode="&#xbc;" horiz-adv-x="1437" d="M74 635v100h202v518h-202v72q115 8 270 76h43v-666h166v-100h-479zM293 0l860 1405h107l-854 -1405h-113zM823 186v103q154 233 236 477h112q-35 -131 -98 -246q-98 -178 -147 -233h252v215q37 76 59 151h51v-366h94v-101h-94v-186h-110v186h-355z" />
<glyph unicode="&#xbd;" horiz-adv-x="1486" d="M68 635v100h202v518h-202v72q115 8 270 76h43v-666h166v-100h-479zM252 0l860 1405h107l-854 -1405h-113zM895 0v27q0 104 76 174q16 16 28 26l226 168q88 63 88 160q0 78 -72 115q-29 14 -80 14t-84 -21.5t-49 -48.5q-23 -41 -22 -79v-29h-109q-2 10 -2 22q0 10 6 52.5 t33 87.5q72 117 235 116q129 0 199 -79q55 -63 55 -138q0 -74 -25.5 -129t-113.5 -121l-215 -163q-53 -39 -53 -54h409v-100h-530z" />
<glyph unicode="&#xbe;" horiz-adv-x="1429" d="M63 840v8h111v-12q0 -125 160 -125q78 0 124 31.5t46 101.5q0 68 -53.5 94.5t-120.5 26.5h-84v100h86q63 0 108 30.5t45 94.5q0 61 -44 88t-103 27q-61 0 -103 -30t-42 -89v-10h-111v20q0 96 71.5 152.5t182.5 56.5h10q106 0 178 -56.5t72 -152.5q0 -117 -123 -174 q141 -51 141 -193q0 -100 -75.5 -159.5t-192.5 -59.5h-14q-129 0 -199 62.5t-70 167.5zM293 0l860 1405h107l-854 -1405h-113zM813 186v103q154 233 236 477h112q-35 -131 -98 -246q-98 -178 -148 -233h252v215q37 76 60 151h51v-366h94v-101h-94v-186h-111v186h-354z" />
<glyph unicode="&#xbf;" horiz-adv-x="1013" d="M72 41q0 66 23.5 127t58 106t76.5 78t77 65t58.5 66.5t23.5 83.5v101h205v-131q0 -96 -82 -183q-37 -37 -78 -69.5t-78 -69.5q-82 -86 -82 -188q0 -82 54 -146q68 -78 188 -78q137 0 203 91q43 59 43 139l-4 76h200q6 -25 7 -78q0 -53 -21.5 -125t-75.5 -135 q-123 -150 -354 -150h-12q-229 0 -346 154q-47 63 -65.5 130.5t-18.5 135.5zM385 819v228h213v-228h-213z" />
<glyph unicode="&#xc0;" horiz-adv-x="1335" d="M8 0l549 1405h221l549 -1405h-217l-119 305h-672l-116 -305h-195zM358 1827l2 6h183l194 -297h-143zM391 487h531l-258 676h-13z" />
<glyph unicode="&#xc1;" horiz-adv-x="1335" d="M8 0l549 1405h221l549 -1405h-217l-119 305h-672l-116 -305h-195zM391 487h531l-258 676h-13zM598 1536l193 297h184l2 -6l-238 -291h-141z" />
<glyph unicode="&#xc2;" horiz-adv-x="1335" d="M8 0l549 1405h221l549 -1405h-217l-119 305h-672l-116 -305h-195zM305 1536l279 297h159l277 -297h-164l-192 182l-195 -182h-164zM391 487h531l-258 676h-13z" />
<glyph unicode="&#xc3;" horiz-adv-x="1335" d="M8 0l549 1405h221l549 -1405h-217l-119 305h-672l-116 -305h-195zM268 1536q0 133 129 193q43 20 99 20q53 0 97 -11.5t87 -25.5q113 -35 164 -35q90 0 112 72h103q0 -84 -55 -143q-61 -70 -175 -70q-61 0 -142 23.5t-122 35t-82 11.5q-92 0 -112 -70h-103zM391 487h531 l-258 676h-13z" />
<glyph unicode="&#xc4;" horiz-adv-x="1335" d="M8 0l549 1405h221l549 -1405h-217l-119 305h-672l-116 -305h-195zM377 1534v201h184v-201h-184zM391 487h531l-258 676h-13zM762 1534v201h186v-201h-186z" />
<glyph unicode="&#xc5;" horiz-adv-x="1335" d="M8 0l549 1405h221l549 -1405h-217l-119 305h-672l-116 -305h-195zM391 487h531l-258 676h-13zM461 1690q0 86 60.5 146t146.5 60q82 0 145 -61q61 -57 61 -145q0 -84 -60 -144.5t-146 -60.5q-84 0 -146 59q-61 57 -61 146zM553 1690q0 -47 34 -78t81 -31t80.5 32t33.5 79 q0 45 -33.5 76.5t-80.5 31.5t-81 -31.5t-34 -78.5z" />
<glyph unicode="&#xc6;" horiz-adv-x="2013" d="M14 0l746 1405h1149l-27 -182h-856l102 -414h689v-182h-643l110 -445h610l29 -182h-809l-76 305h-671l-160 -305h-193zM465 487h530l-164 676h-12z" />
<glyph unicode="&#xc7;" horiz-adv-x="1357" d="M127 610v185q0 307 164 475q154 156 414 155q240 0 385 -139q158 -147 157 -420h-200q0 188 -97 289q-88 88 -245 88q-270 0 -349 -244q-29 -86 -28 -204v-185q0 -340 223 -422q70 -27 149 -26q80 0 144.5 21.5t109.5 66.5q100 100 101 285h192q0 -272 -162 -420 q-145 -135 -380 -135q-262 0 -414 155q-164 166 -164 475zM489 -358l19 100q82 -41 147 -41q137 0 138 92q0 41 -32 62.5t-75 21.5h-43v88h49q227 0 228 -182q0 -100 -84 -150q-63 -37 -131 -36q-133 0 -216 45z" />
<glyph unicode="&#xc8;" horiz-adv-x="1214" d="M188 0v1405h922l-27 -182h-694v-414h629v-182h-629v-445h707l28 -182h-936zM369 1827l2 6h182l195 -297h-144z" />
<glyph unicode="&#xc9;" horiz-adv-x="1214" d="M188 0v1405h922l-27 -182h-694v-414h629v-182h-629v-445h707l28 -182h-936zM582 1536l192 297h184l3 -6l-238 -291h-141z" />
<glyph unicode="&#xca;" horiz-adv-x="1214" d="M188 0v1405h922l-27 -182h-694v-414h629v-182h-629v-445h707l28 -182h-936zM287 1536l278 297h160l276 -297h-163l-193 182l-194 -182h-164z" />
<glyph unicode="&#xcb;" horiz-adv-x="1214" d="M188 0v1405h922l-27 -182h-694v-414h629v-182h-629v-445h707l28 -182h-936zM365 1536v201h184v-201h-184zM750 1536v201h186v-201h-186z" />
<glyph unicode="&#xcc;" horiz-adv-x="745" d="M66 1827l2 6h182l194 -297h-143zM109 0v182h163v1041h-163v182h528v-182h-164v-1041h164v-182h-528z" />
<glyph unicode="&#xcd;" horiz-adv-x="745" d="M109 0v182h163v1041h-163v182h528v-182h-164v-1041h164v-182h-528zM295 1536l192 297h185l2 -6l-238 -291h-141z" />
<glyph unicode="&#xce;" horiz-adv-x="745" d="M16 1536l279 297h160l276 -297h-164l-192 182l-195 -182h-164zM109 0v182h163v1041h-163v182h528v-182h-164v-1041h164v-182h-528z" />
<glyph unicode="&#xcf;" horiz-adv-x="745" d="M88 1536v201h184v-201h-184zM109 0v182h163v1041h-163v182h528v-182h-164v-1041h164v-182h-528zM473 1536v201h186v-201h-186z" />
<glyph unicode="&#xd0;" horiz-adv-x="1394" d="M10 635v133h191v637h487q254 0 410 -156q172 -168 172 -475v-143q0 -307 -172 -475q-156 -156 -410 -156h-487v635h-191zM401 182h287q270 0 352 244q29 84 29 205v143q0 340 -229 422q-70 27 -152 27h-287v-455h297v-133h-297v-453z" />
<glyph unicode="&#xd1;" horiz-adv-x="1421" d="M188 0v1405h177l679 -1016l7 2v1014h182v-1405h-170l-686 1028l-6 -2v-1026h-183zM317 1536q0 133 129 193q43 20 99 20q53 0 97 -11.5t87 -25.5q113 -35 164 -35q90 0 113 72h102q0 -84 -55 -143q-61 -70 -174 -70q-61 0 -142.5 23.5t-122.5 35t-82 11.5q-92 0 -112 -70 h-103z" />
<glyph unicode="&#xd2;" horiz-adv-x="1413" d="M125 610v185q0 307 170 475q160 156 412 155q252 0 411 -155q170 -168 170 -475v-185q0 -307 -170 -475q-160 -156 -411 -155q-252 0 -412 155q-170 168 -170 475zM326 610q0 -340 227 -422q70 -27 154 -26q82 0 152.5 25.5t119.5 78.5q109 115 108 344v185 q0 340 -227 422q-72 27 -153 26q-84 0 -154 -25.5t-119 -78.5q-109 -115 -108 -344v-185zM406 1827l2 6h182l194 -297h-143z" />
<glyph unicode="&#xd3;" horiz-adv-x="1413" d="M125 610v185q0 307 170 475q160 156 412 155q252 0 411 -155q170 -168 170 -475v-185q0 -307 -170 -475q-160 -156 -411 -155q-252 0 -412 155q-170 168 -170 475zM326 610q0 -340 227 -422q70 -27 154 -26q82 0 152.5 25.5t119.5 78.5q109 115 108 344v185 q0 340 -227 422q-72 27 -153 26q-84 0 -154 -25.5t-119 -78.5q-109 -115 -108 -344v-185zM627 1536l192 297h185l2 -6l-238 -291h-141z" />
<glyph unicode="&#xd4;" horiz-adv-x="1413" d="M125 610v185q0 307 170 475q160 156 412 155q252 0 411 -155q170 -168 170 -475v-185q0 -307 -170 -475q-160 -156 -411 -155q-252 0 -412 155q-170 168 -170 475zM326 610q0 -340 227 -422q70 -27 154 -26q82 0 152.5 25.5t119.5 78.5q109 115 108 344v185 q0 340 -227 422q-72 27 -153 26q-84 0 -154 -25.5t-119 -78.5q-109 -115 -108 -344v-185zM344 1536l279 297h159l277 -297h-164l-193 182l-194 -182h-164z" />
<glyph unicode="&#xd5;" horiz-adv-x="1413" d="M125 610v185q0 307 170 475q160 156 412 155q252 0 411 -155q170 -168 170 -475v-185q0 -307 -170 -475q-160 -156 -411 -155q-252 0 -412 155q-170 168 -170 475zM311 1536q0 133 127 193q45 20 101 20q53 0 97 -11.5t85 -25.5q115 -35 166 -35q90 0 112 72h103 q0 -84 -53 -143q-63 -70 -177 -70q-61 0 -142 23.5t-122 35t-82 11.5q-92 0 -112 -70h-103zM326 610q0 -340 227 -422q70 -27 154 -26q82 0 152.5 25.5t119.5 78.5q109 115 108 344v185q0 340 -227 422q-72 27 -153 26q-84 0 -154 -25.5t-119 -78.5q-109 -115 -108 -344 v-185z" />
<glyph unicode="&#xd6;" horiz-adv-x="1413" d="M125 610v185q0 307 170 475q160 156 412 155q252 0 411 -155q170 -168 170 -475v-185q0 -307 -170 -475q-160 -156 -411 -155q-252 0 -412 155q-170 168 -170 475zM326 610q0 -340 227 -422q70 -27 154 -26q82 0 152.5 25.5t119.5 78.5q109 115 108 344v185 q0 340 -227 422q-72 27 -153 26q-84 0 -154 -25.5t-119 -78.5q-109 -115 -108 -344v-185zM424 1536v201h184v-201h-184zM809 1536v201h186v-201h-186z" />
<glyph unicode="&#xd7;" d="M203 213l313 309l-313 312l112 120l316 -311l313 311l113 -120l-314 -312l314 -309l-113 -121l-313 307l-316 -307z" />
<glyph unicode="&#xd8;" horiz-adv-x="1413" d="M125 610v185q0 307 170 475q160 155 412 155q184 0 319 -84l121 203h131l-164 -272q174 -166 174 -477v-185q0 -307 -170 -475q-160 -156 -411 -155q-180 0 -318 81l-115 -194h-131l158 262q-176 168 -176 481zM326 610q0 -201 77 -309l527 881q-92 61 -199 61 q-109 0 -178.5 -25.5t-118.5 -78.5q-109 -115 -108 -344v-185zM485 221q90 -59 197 -59q106 0 177 25.5t120 78.5q109 115 108 344v185q0 188 -75 305z" />
<glyph unicode="&#xd9;" horiz-adv-x="1392" d="M176 449v956h201v-952q0 -127 86 -207q92 -84 237 -84t230.5 81t85.5 210v952h201v-956q0 -213 -140 -343q-139 -127 -368 -126h-27q-229 0 -367 126q-139 127 -139 343zM406 1827l2 6h182l194 -297h-143z" />
<glyph unicode="&#xda;" horiz-adv-x="1392" d="M176 449v956h201v-952q0 -127 86 -207q92 -84 237 -84t230.5 81t85.5 210v952h201v-956q0 -213 -140 -343q-139 -127 -368 -126h-27q-229 0 -367 126q-139 127 -139 343zM623 1536l192 297h184l2 -6l-237 -291h-141z" />
<glyph unicode="&#xdb;" horiz-adv-x="1392" d="M176 449v956h201v-952q0 -127 86 -207q92 -84 237 -84t230.5 81t85.5 210v952h201v-956q0 -213 -140 -343q-139 -127 -368 -126h-27q-229 0 -367 126q-139 127 -139 343zM338 1536l278 297h160l277 -297h-164l-193 182l-194 -182h-164z" />
<glyph unicode="&#xdc;" horiz-adv-x="1392" d="M176 449v956h201v-952q0 -127 86 -207q92 -84 237 -84t230.5 81t85.5 210v952h201v-956q0 -213 -140 -343q-139 -127 -368 -126h-27q-229 0 -367 126q-139 127 -139 343zM412 1536v201h184v-201h-184zM797 1536v201h186v-201h-186z" />
<glyph unicode="&#xdd;" horiz-adv-x="1171" d="M-10 1405h229l375 -653h8l371 653h207l-494 -862v-543h-201v543zM530 1536l193 297h184l2 -6l-237 -291h-142z" />
<glyph unicode="&#xde;" horiz-adv-x="1296" d="M188 0v1405h201v-254h406q178 0 297 -111q123 -117 122 -299q0 -182 -122 -299q-119 -111 -297 -110h-406v-332h-201zM389 514h387q96 0 168 68q70 66 70 159q0 94 -68 160q-72 68 -170 68h-387v-455z" />
<glyph unicode="&#xdf;" horiz-adv-x="1257" d="M94 893v154h119q4 205 137 325q131 119 328 119q184 0 305 -100q127 -109 127 -279q0 -102 -57.5 -189t-147.5 -122l4 -8q109 -41 178.5 -142.5t69.5 -240.5q0 -78 -36 -157t-97 -134q-129 -119 -324 -119h-170v154h150q123 0 201 82q84 86 84 202q0 111 -84 191 q-82 80 -201 80h-150v151h134q106 0 180 70q74 72 74 176q0 102 -66 166.5t-182 64.5q-117 0 -190.5 -78.5t-73.5 -207.5v-1186h-193v1028h-119z" />
<glyph unicode="&#xe0;" horiz-adv-x="1198" d="M98 291q0 104 51.5 172.5t143.5 105.5q147 59 506 60v96q0 80 -29 115q-63 74 -211 73q-143 0 -201 -69q-33 -41 -32 -94v-25h-189q-4 20 -4 68q0 45 33 100t90 94q123 80 307 80h19q209 0 309 -83t100 -236v-543q0 -39 17.5 -55.5t40.5 -16.5q49 0 94 29v-142 q-68 -41 -158 -40q-92 0 -133 53t-45 135q-125 -188 -367 -188q-238 0 -313 147q-29 59 -29 164zM264 1468l2 7h183l194 -297h-143zM291 274q0 -141 215 -141q115 0 203 80q90 84 90 225v41q-262 0 -350.5 -27.5t-123 -65.5t-34.5 -112z" />
<glyph unicode="&#xe1;" horiz-adv-x="1198" d="M98 291q0 104 51.5 172.5t143.5 105.5q147 59 506 60v96q0 80 -29 115q-63 74 -211 73q-143 0 -201 -69q-33 -41 -32 -94v-25h-189q-4 20 -4 68q0 45 33 100t90 94q123 80 307 80h19q209 0 309 -83t100 -236v-543q0 -39 17.5 -55.5t40.5 -16.5q49 0 94 29v-142 q-68 -41 -158 -40q-92 0 -133 53t-45 135q-125 -188 -367 -188q-238 0 -313 147q-29 59 -29 164zM291 274q0 -141 215 -141q115 0 203 80q90 84 90 225v41q-262 0 -350.5 -27.5t-123 -65.5t-34.5 -112zM504 1178l192 297h185l2 -7l-238 -290h-141z" />
<glyph unicode="&#xe2;" horiz-adv-x="1198" d="M98 291q0 104 51.5 172.5t143.5 105.5q147 59 506 60v96q0 80 -29 115q-63 74 -211 73q-143 0 -201 -69q-33 -41 -32 -94v-25h-189q-4 20 -4 68q0 45 33 100t90 94q123 80 307 80h19q209 0 309 -83t100 -236v-543q0 -39 17.5 -55.5t40.5 -16.5q49 0 94 29v-142 q-68 -41 -158 -40q-92 0 -133 53t-45 135q-125 -188 -367 -188q-238 0 -313 147q-29 59 -29 164zM211 1178l278 297h160l277 -297h-164l-193 182l-194 -182h-164zM291 274q0 -141 215 -141q115 0 203 80q90 84 90 225v41q-262 0 -350.5 -27.5t-123 -65.5t-34.5 -112z" />
<glyph unicode="&#xe3;" horiz-adv-x="1198" d="M98 291q0 104 51.5 172.5t143.5 105.5q147 59 506 60v96q0 80 -29 115q-63 74 -211 73q-143 0 -201 -69q-33 -41 -32 -94v-25h-189q-4 20 -4 68q0 45 33 100t90 94q123 80 307 80h19q209 0 309 -83t100 -236v-543q0 -39 17.5 -55.5t40.5 -16.5q49 0 94 29v-142 q-68 -41 -158 -40q-92 0 -133 53t-45 135q-125 -188 -367 -188q-238 0 -313 147q-29 59 -29 164zM174 1262q0 133 129 192q43 20 98 21q53 0 97.5 -11.5t87.5 -25.5q113 -35 164 -35q90 0 112 72h103q0 -84 -56 -144q-61 -70 -174 -69q-61 0 -142 23.5t-122 34.5t-82 11 q-92 0 -113 -69h-102zM291 274q0 -141 215 -141q115 0 203 80q90 84 90 225v41q-262 0 -350.5 -27.5t-123 -65.5t-34.5 -112z" />
<glyph unicode="&#xe4;" horiz-adv-x="1198" d="M98 291q0 104 51.5 172.5t143.5 105.5q147 59 506 60v96q0 80 -29 115q-63 74 -211 73q-143 0 -201 -69q-33 -41 -32 -94v-25h-189q-4 20 -4 68q0 45 33 100t90 94q123 80 307 80h19q209 0 309 -83t100 -236v-543q0 -39 17.5 -55.5t40.5 -16.5q49 0 94 29v-142 q-68 -41 -158 -40q-92 0 -133 53t-45 135q-125 -188 -367 -188q-238 0 -313 147q-29 59 -29 164zM279 1274v201h184v-201h-184zM291 274q0 -141 215 -141q115 0 203 80q90 84 90 225v41q-262 0 -350.5 -27.5t-123 -65.5t-34.5 -112zM664 1274v201h186v-201h-186z" />
<glyph unicode="&#xe5;" horiz-adv-x="1198" d="M98 291q0 104 51.5 172.5t143.5 105.5q147 59 506 60v96q0 80 -29 115q-63 74 -211 73q-143 0 -201 -69q-33 -41 -32 -94v-25h-189q-4 20 -4 68q0 45 33 100t90 94q123 80 307 80h19q209 0 309 -83t100 -236v-543q0 -39 17.5 -55.5t40.5 -16.5q49 0 94 29v-142 q-68 -41 -158 -40q-92 0 -133 53t-45 135q-125 -188 -367 -188q-238 0 -313 147q-29 59 -29 164zM291 274q0 -141 215 -141q115 0 203 80q90 84 90 225v41q-262 0 -350.5 -27.5t-123 -65.5t-34.5 -112zM360 1343q0 86 60.5 146.5t146.5 60.5q82 0 146 -59q61 -60 61 -148 q0 -84 -60.5 -144t-146.5 -60q-84 0 -145 57q-61 59 -62 147zM453 1343q0 -47 33.5 -77.5t80.5 -30.5t81 31.5t34 79.5q0 45 -34 76.5t-81 31.5t-80.5 -31.5t-33.5 -79.5z" />
<glyph unicode="&#xe6;" horiz-adv-x="1832" d="M98 291q0 104 51.5 172.5t143.5 105.5q147 59 506 60v96q0 80 -29 115q-63 74 -211 73q-143 0 -201 -69q-33 -41 -32 -94v-25h-189q-4 20 -4 68q0 45 33 100t90 94q123 80 307 80h19q258 0 354 -131q123 131 334 131h14q195 0 318 -119q121 -119 120 -323v-146h-731 q6 -242 162 -319q53 -27 135 -27q80 0 131 31t78 72q43 66 43 153h182q0 -186 -125 -299q-121 -111 -313 -110h-8q-137 0 -242.5 58t-167.5 169q-70 -111 -186.5 -169t-239.5 -58q-238 0 -313 147q-29 59 -29 164zM291 274q0 -141 215 -141q115 0 203 80q90 84 90 225v41 q-262 0 -350.5 -27.5t-123 -65.5t-34.5 -112zM995 629h537v24q0 123 -76 195q-69 65 -182 65q-115 0 -188.5 -70.5t-90.5 -213.5z" />
<glyph unicode="&#xe7;" horiz-adv-x="1114" d="M104 498v49q0 242 132 383q125 137 327 137h17q190 0 312 -118t122 -314h-191q0 193 -143 258q-47 20 -107 20q-61 0 -111 -20.5t-87 -61.5q-78 -84 -78 -235v-111q0 -182 76 -267t207 -85q129 0 189 78t60 199h185q0 -203 -123 -320q-119 -111 -309 -110h-17 q-207 0 -329 135q-131 141 -132 383zM367 -358l18 100q82 -41 147 -41q137 0 138 92q0 41 -32 62.5t-75 21.5h-43v88h49q227 0 228 -182q0 -100 -84 -150q-63 -37 -131 -36q-133 0 -215 45z" />
<glyph unicode="&#xe8;" horiz-adv-x="1138" d="M104 502v41q0 244 134 387q125 137 337 137h15q195 0 315 -119q123 -119 123 -323v-146h-731q6 -242 162 -319q53 -27 135 -27q80 0 131 31t78 72q43 66 43 153h182q0 -186 -123 -299q-123 -111 -315 -110h-8q-215 0 -344 135q-133 143 -134 387zM276 1468l3 7h182 l194 -297h-143zM301 629h537v24q0 123 -76 195q-69 65 -182 65q-115 0 -189 -70.5t-90 -213.5z" />
<glyph unicode="&#xe9;" horiz-adv-x="1138" d="M104 502v41q0 244 134 387q125 137 337 137h15q195 0 315 -119q123 -119 123 -323v-146h-731q6 -242 162 -319q53 -27 135 -27q80 0 131 31t78 72q43 66 43 153h182q0 -186 -123 -299q-123 -111 -315 -110h-8q-215 0 -344 135q-133 143 -134 387zM301 629h537v24 q0 123 -76 195q-69 65 -182 65q-115 0 -189 -70.5t-90 -213.5zM504 1178l192 297h185l2 -7l-238 -290h-141z" />
<glyph unicode="&#xea;" horiz-adv-x="1138" d="M104 502v41q0 244 134 387q125 137 337 137h15q195 0 315 -119q123 -119 123 -323v-146h-731q6 -242 162 -319q53 -27 135 -27q80 0 131 31t78 72q43 66 43 153h182q0 -186 -123 -299q-123 -111 -315 -110h-8q-215 0 -344 135q-133 143 -134 387zM221 1178l279 297h159 l277 -297h-164l-192 182l-195 -182h-164zM301 629h537v24q0 123 -76 195q-69 65 -182 65q-115 0 -189 -70.5t-90 -213.5z" />
<glyph unicode="&#xeb;" horiz-adv-x="1138" d="M104 502v41q0 244 134 387q125 137 337 137h15q195 0 315 -119q123 -119 123 -323v-146h-731q6 -242 162 -319q53 -27 135 -27q80 0 131 31t78 72q43 66 43 153h182q0 -186 -123 -299q-123 -111 -315 -110h-8q-215 0 -344 135q-133 143 -134 387zM293 1274v201h184v-201 h-184zM301 629h537v24q0 123 -76 195q-69 65 -182 65q-115 0 -189 -70.5t-90 -213.5zM678 1274v201h186v-201h-186z" />
<glyph unicode="&#xec;" horiz-adv-x="532" d="M-18 1468l2 7h182l194 -297h-143zM170 0v1047h192v-1047h-192z" />
<glyph unicode="&#xed;" horiz-adv-x="532" d="M170 0v1047h192v-1047h-192zM174 1178l193 297h184l2 -7l-238 -290h-141z" />
<glyph unicode="&#xee;" horiz-adv-x="532" d="M-90 1178l278 297h160l277 -297h-164l-193 182l-194 -182h-164zM170 0v1047h192v-1047h-192z" />
<glyph unicode="&#xef;" horiz-adv-x="532" d="M-18 1274v201h184v-201h-184zM170 0v1047h192v-1047h-192zM367 1274v201h186v-201h-186z" />
<glyph unicode="&#xf0;" horiz-adv-x="1177" d="M106 485v76q0 248 142 381q129 125 340 125q31 0 65 -6q-74 90 -170 178l-186 -88q-20 16 -37.5 33.5t-36.5 34.5q94 45 193 90q-47 41 -98.5 71.5t-84.5 53.5l121 59q92 -47 195 -115l192 90q16 -18 33 -34.5t33 -34.5l-178 -82q305 -248 403 -531q37 -106 37 -225v-76 q0 -248 -141 -383q-129 -123 -340 -122q-211 0 -340 122q-141 135 -142 383zM299 504q0 -188 84 -285q74 -86 205 -86q203 0 266 203q23 70 23 168v39q0 188 -84 284q-74 86 -205 86q-203 0 -266 -200q-23 -72 -23 -170v-39z" />
<glyph unicode="&#xf1;" horiz-adv-x="1214" d="M170 0v1047h139l27 -154q133 174 350 174q256 0 340 -199q29 -70 29 -163v-705h-193v670q0 133 -61.5 188t-159.5 55q-111 0 -195 -84t-84 -206v-623h-192zM227 1262q0 133 129 192q43 20 99 21q53 0 97 -11.5t87 -25.5q113 -35 164 -35q90 0 112 72h103q0 -84 -55 -144 q-61 -70 -175 -69q-61 0 -142 23.5t-122 34.5t-82 11q-92 0 -112 -69h-103z" />
<glyph unicode="&#xf2;" horiz-adv-x="1175" d="M106 485v76q0 248 142 381q129 125 340 125t340 -125q141 -133 141 -381v-76q0 -248 -141 -383q-129 -123 -340 -122q-211 0 -340 122q-141 135 -142 383zM283 1468l2 7h182l195 -297h-144zM299 504q0 -188 84 -285q74 -86 205 -86q203 0 266 203q23 70 23 168v39 q0 188 -84 284q-74 86 -205 86q-203 0 -266 -200q-23 -72 -23 -170v-39z" />
<glyph unicode="&#xf3;" horiz-adv-x="1175" d="M106 485v76q0 248 142 381q129 125 340 125t340 -125q141 -133 141 -381v-76q0 -248 -141 -383q-129 -123 -340 -122q-211 0 -340 122q-141 135 -142 383zM299 504q0 -188 84 -285q74 -86 205 -86q203 0 266 203q23 70 23 168v39q0 188 -84 284q-74 86 -205 86 q-203 0 -266 -200q-23 -72 -23 -170v-39zM522 1178l193 297h184l2 -7l-237 -290h-142z" />
<glyph unicode="&#xf4;" horiz-adv-x="1175" d="M106 485v76q0 248 142 381q129 125 340 125t340 -125q141 -133 141 -381v-76q0 -248 -141 -383q-129 -123 -340 -122q-211 0 -340 122q-141 135 -142 383zM227 1178l279 297h160l276 -297h-164l-192 182l-195 -182h-164zM299 504q0 -188 84 -285q74 -86 205 -86 q203 0 266 203q23 70 23 168v39q0 188 -84 284q-74 86 -205 86q-203 0 -266 -200q-23 -72 -23 -170v-39z" />
<glyph unicode="&#xf5;" horiz-adv-x="1175" d="M106 485v76q0 248 142 381q129 125 340 125t340 -125q141 -133 141 -381v-76q0 -248 -141 -383q-129 -123 -340 -122q-211 0 -340 122q-141 135 -142 383zM193 1262q0 133 126 192q45 20 101 21q53 0 97 -11.5t85 -25.5q115 -35 166 -35q90 0 113 72h102q0 -84 -53 -144 q-63 -70 -176 -69q-61 0 -142.5 23.5t-122 34.5t-81.5 11q-92 0 -113 -69h-102zM299 504q0 -188 84 -285q74 -86 205 -86q203 0 266 203q23 70 23 168v39q0 188 -84 284q-74 86 -205 86q-203 0 -266 -200q-23 -72 -23 -170v-39z" />
<glyph unicode="&#xf6;" horiz-adv-x="1175" d="M106 485v76q0 248 142 381q129 125 340 125t340 -125q141 -133 141 -381v-76q0 -248 -141 -383q-129 -123 -340 -122q-211 0 -340 122q-141 135 -142 383zM299 504q0 -188 84 -285q74 -86 205 -86q203 0 266 203q23 70 23 168v39q0 188 -84 284q-74 86 -205 86 q-203 0 -266 -200q-23 -72 -23 -170v-39zM301 1274v201h184v-201h-184zM686 1274v201h186v-201h-186z" />
<glyph unicode="&#xf7;" d="M104 436v172h1049v-172h-1049zM545 104v185h170v-185h-170zM545 756v186h170v-186h-170z" />
<glyph unicode="&#xf8;" horiz-adv-x="1175" d="M106 485v76q0 248 142 381q129 125 340 125q135 0 243 -55l95 151h121l-132 -209q154 -135 154 -393v-76q0 -248 -141 -383q-129 -123 -340 -122q-139 0 -246 55l-92 -148h-121l129 205q-152 135 -152 393zM299 504q0 -156 59 -250l385 616q-68 43 -141 43 q-74 0 -127 -20.5t-92 -65.5q-84 -96 -84 -284v-39zM430 176q63 -43 141 -43q76 0 129.5 20.5t92.5 65.5q84 96 84 285v39q0 156 -62 252z" />
<glyph unicode="&#xf9;" horiz-adv-x="1265" d="M160 342v705h192v-670q0 -133 61.5 -188.5t159.5 -55.5q111 0 195 84t84 207v623h192v-842q0 -39 17.5 -55.5t40.5 -16.5q47 0 92 29v-142q-61 -41 -129 -40q-70 0 -103.5 14t-56.5 39q-39 43 -43 119q-80 -117 -227 -158q-49 -14 -115 -14q-68 0 -135.5 21.5 t-118.5 64.5q-106 96 -106 276zM313 1468l2 7h183l194 -297h-143z" />
<glyph unicode="&#xfa;" horiz-adv-x="1265" d="M160 342v705h192v-670q0 -133 61.5 -188.5t159.5 -55.5q111 0 195 84t84 207v623h192v-842q0 -39 17.5 -55.5t40.5 -16.5q47 0 92 29v-142q-61 -41 -129 -40q-70 0 -103.5 14t-56.5 39q-39 43 -43 119q-80 -117 -227 -158q-49 -14 -115 -14q-68 0 -135.5 21.5 t-118.5 64.5q-106 96 -106 276zM530 1178l193 297h184l2 -7l-237 -290h-142z" />
<glyph unicode="&#xfb;" horiz-adv-x="1265" d="M160 342v705h192v-670q0 -133 61.5 -188.5t159.5 -55.5q111 0 195 84t84 207v623h192v-842q0 -39 17.5 -55.5t40.5 -16.5q47 0 92 29v-142q-61 -41 -129 -40q-70 0 -103.5 14t-56.5 39q-39 43 -43 119q-80 -117 -227 -158q-49 -14 -115 -14q-68 0 -135.5 21.5 t-118.5 64.5q-106 96 -106 276zM240 1178l278 297h160l276 -297h-163l-193 182l-195 -182h-163z" />
<glyph unicode="&#xfc;" horiz-adv-x="1265" d="M160 342v705h192v-670q0 -133 61.5 -188.5t159.5 -55.5q111 0 195 84t84 207v623h192v-842q0 -39 17.5 -55.5t40.5 -16.5q47 0 92 29v-142q-61 -41 -129 -40q-70 0 -103.5 14t-56.5 39q-39 43 -43 119q-80 -117 -227 -158q-49 -14 -115 -14q-68 0 -135.5 21.5 t-118.5 64.5q-106 96 -106 276zM317 1274v201h185v-201h-185zM702 1274v201h187v-201h-187z" />
<glyph unicode="&#xfd;" horiz-adv-x="1048" d="M25 1047h204l301 -773h9l297 773h188l-391 -1006q-86 -211 -143.5 -282.5t-115 -105.5t-134.5 -34q-80 0 -144 29v157q63 -29 103 -28q39 0 65.5 7t54.5 32q70 59 113 194zM455 1178l192 297h184l3 -7l-238 -290h-141z" />
<glyph unicode="&#xfe;" horiz-adv-x="1193" d="M170 -371v1846h192v-543q111 135 302 135q186 0 299 -129q125 -145 124 -416v-22q0 -248 -118 -389q-111 -131 -305 -131q-196 -1 -302 153v-504h-192zM360 524q0 -309 160 -372q49 -18 109 -19q127 0 192 84q74 96 74 307q0 307 -158 369q-49 20 -108 20 q-129 0 -195 -84q-74 -96 -74 -305z" />
<glyph unicode="&#xff;" horiz-adv-x="1048" d="M25 1047h204l301 -773h9l297 773h188l-391 -1006q-86 -211 -143.5 -282.5t-115 -105.5t-134.5 -34q-80 0 -144 29v157q63 -29 103 -28q39 0 65.5 7t54.5 32q70 59 113 194zM246 1274v201h184v-201h-184zM631 1274v201h186v-201h-186z" />
<glyph unicode="&#x152;" horiz-adv-x="2113" d="M125 610v185q0 307 170 475q160 156 401 155q242 0 391 -139v119h922l-27 -182h-694v-414h629v-182h-629v-445h707l28 -182h-936v119q-143 -139 -380 -139q-252 0 -412 155q-170 168 -170 475zM326 610q0 -340 227 -422q70 -27 154 -26q82 0 152.5 25.5t119.5 78.5 q109 115 108 344v185q0 340 -227 422q-72 27 -153 26q-84 0 -154 -25.5t-119 -78.5q-109 -115 -108 -344v-185z" />
<glyph unicode="&#x153;" horiz-adv-x="1910" d="M106 485v76q0 248 142 381q129 125 340 125q260 0 387 -178q131 178 373 178h14q195 0 317 -119q121 -119 121 -323v-146h-731q6 -242 162 -319q53 -27 135 -27q80 0 131 31t78 72q43 66 43 153h182q0 -186 -125 -299q-121 -111 -313 -110h-8q-246 0 -379 178 q-127 -178 -387 -178q-211 0 -340 122q-141 135 -142 383zM299 504q0 -188 84 -285q74 -86 205 -86q203 0 266 203q23 70 23 168v39q0 188 -84 284q-74 86 -205 86q-203 0 -266 -200q-23 -72 -23 -170v-39zM1073 629h537v24q0 123 -76 195q-69 65 -182 65 q-115 0 -188.5 -70.5t-90.5 -213.5z" />
<glyph unicode="&#x178;" horiz-adv-x="1171" d="M-10 1405h229l375 -653h8l371 653h207l-494 -862v-543h-201v543zM324 1534v201h184v-201h-184zM709 1534v201h186v-201h-186z" />
<glyph unicode="&#x2c6;" horiz-adv-x="1097" d="M188 1178l279 297h160l276 -297h-164l-192 182l-195 -182h-164z" />
<glyph unicode="&#x2dc;" horiz-adv-x="745" d="M-2 1255q0 133 129 193q43 20 98 20q53 0 97.5 -11t87.5 -23q113 -37 163 -37q90 0 113 71h102q0 -84 -55 -143q-61 -70 -174 -70q-61 0 -142 24t-122 35t-82 11q-92 0 -113 -70h-102z" />
<glyph unicode="&#x2000;" horiz-adv-x="948" />
<glyph unicode="&#x2001;" horiz-adv-x="1896" />
<glyph unicode="&#x2002;" horiz-adv-x="948" />
<glyph unicode="&#x2003;" horiz-adv-x="1896" />
<glyph unicode="&#x2004;" horiz-adv-x="632" />
<glyph unicode="&#x2005;" horiz-adv-x="474" />
<glyph unicode="&#x2006;" horiz-adv-x="316" />
<glyph unicode="&#x2007;" horiz-adv-x="316" />
<glyph unicode="&#x2008;" horiz-adv-x="237" />
<glyph unicode="&#x2009;" horiz-adv-x="379" />
<glyph unicode="&#x200a;" horiz-adv-x="105" />
<glyph unicode="&#x2010;" horiz-adv-x="800" d="M141 453v200h518v-200h-518z" />
<glyph unicode="&#x2011;" horiz-adv-x="800" d="M141 453v200h518v-200h-518z" />
<glyph unicode="&#x2012;" horiz-adv-x="800" d="M141 453v200h518v-200h-518z" />
<glyph unicode="&#x2013;" horiz-adv-x="1306" d="M141 457v194h1024v-194h-1024z" />
<glyph unicode="&#x2014;" horiz-adv-x="2166" d="M147 457v192h1864v-192h-1864z" />
<glyph unicode="&#x2018;" horiz-adv-x="458" d="M125 924v174l72 307h106l-55 -254h84v-227h-207z" />
<glyph unicode="&#x2019;" horiz-adv-x="448" d="M125 1178v227h207v-174l-72 -307h-106l55 254h-84z" />
<glyph unicode="&#x201a;" horiz-adv-x="487" d="M141 0v227h207v-174l-72 -307h-106l55 254h-84z" />
<glyph unicode="&#x201c;" horiz-adv-x="749" d="M125 924v174l72 307h106l-55 -254h84v-227h-207zM416 924v174l71 307h107l-55 -254h84v-227h-207z" />
<glyph unicode="&#x201d;" horiz-adv-x="739" d="M125 1178v227h207v-174l-72 -307h-106l55 254h-84zM416 1178v227h207v-174l-72 -307h-107l56 254h-84z" />
<glyph unicode="&#x201e;" horiz-adv-x="778" d="M141 0v227h207v-174l-72 -307h-106l55 254h-84zM432 0v227h207v-174l-72 -307h-106l55 254h-84z" />
<glyph unicode="&#x2022;" horiz-adv-x="1228" d="M307 705q0 131 90 221t215 90q127 0 218.5 -91t91.5 -220q0 -66 -25 -122.5t-66 -99.5q-90 -92 -219 -92q-127 0 -215 92q-90 92 -90 222z" />
<glyph unicode="&#x2026;" horiz-adv-x="1505" d="M141 0v227h209v-227h-209zM649 0v227h209v-227h-209zM1155 0v227h209v-227h-209z" />
<glyph unicode="&#x202f;" horiz-adv-x="379" />
<glyph unicode="&#x2039;" horiz-adv-x="569" d="M100 690l250 357h105l-193 -357l193 -356h-105z" />
<glyph unicode="&#x203a;" horiz-adv-x="569" d="M115 334l192 356l-192 357h104l250 -357l-250 -356h-104z" />
<glyph unicode="&#x205f;" horiz-adv-x="474" />
<glyph unicode="&#x20ac;" horiz-adv-x="1150" d="M61 487v134h185q-2 18 -2 38v78q0 16 2 35h-185v131h203q51 240 228 383q168 133 403 133q72 0 180 -16v-186q-70 20 -162 20q-166 0 -283.5 -91t-162.5 -243h405v-131h-430q-4 -16 -4 -35v-78q0 -20 4 -38h430v-134h-401q49 -152 170 -237.5t287 -85.5q57 0 147 26v-186 q-90 -20 -194 -20q-106 0 -207 33.5t-182 97.5q-174 141 -226 372h-205z" />
<glyph unicode="&#x2122;" horiz-adv-x="1837" d="M94 1282v123h643v-123h-254v-692h-133v692h-256zM786 590v815h203q61 -154 123 -308.5t125 -308.5l252 617h201v-815h-134v323q0 160 -4 322l-262 -645h-127q-66 160 -129 319.5t-129 319.5v-639h-119z" />
<glyph unicode="&#xe000;" horiz-adv-x="1044" d="M0 0v1044h1044v-1044h-1044z" />
<glyph unicode="&#xfb01;" horiz-adv-x="1230" d="M96 893v154h115v141q0 303 244 303q115 0 192 -39v-141q-63 27 -104 26q-43 0 -63.5 -4t-37.5 -18q-39 -29 -39 -107v-161h244v-154h-244v-893h-192v893h-115zM868 1296v179h201v-179h-201zM872 0v1047h193v-1047h-193z" />
<glyph unicode="&#xfb02;" horiz-adv-x="1243" d="M96 893v154h115v141q0 303 244 303q115 0 192 -39v-141q-63 27 -104 26q-43 0 -63.5 -4t-37.5 -18q-39 -29 -39 -107v-161h244v-154h-244v-893h-192v893h-115zM872 0v1475h193v-1475h-193z" />
</font>
</defs>
</svg>
